BT-Chat.com Follow the Swarm - Latest Torrents 2014-09-03T02:53:33-05:00 tag:bt-chat.com,2007:05 BBC Super Senses, The Secret Power of Animals 3 of 3 - Scent CC DVDTV x264 AC3 5.1 DD 576p.mkv.torrent Verified http://www.bt-chat.com/rss.php?group=230 Pharos2001 http://www.bt-chat.com/users.php?id=46734 http://www.bt-chat.com/details.php%3Fid%3D196221 2014-09-03T02:50:23-05:00 1999-11-30T00:00:00.0-05:00
58:56 Our human senses are pretty incredible - but we only see, hear and smell a tiny fraction of what\s out there. There is a hidden world that animals across the globe can experience. In this episode we explore the powerful world of scent and the animals that have pushed their sense of smell far beyond human abilities. In the Bahamas, Helen dives into shark-infested waters with only a small pouch of liquid as her defence. Patrick controls the behavior of a swarm of bees using tiny traces of scent, and he gets uncomfortably close to one of the smelliest animals in the world - a skunk! Source: BBC-TWO HD TS[AVC/AC3] DDD AVC 1080i (CUVID HW Deinterlace) > x264 (High @L3.1) 2pass 720*576 (1.09Gb) approx. 2.46Mbps AC3 6 channel 384Kbps 48Khz SUP English DVB Subtitles (Black/White) Size: 1/4 DVD Enjoy, Pls help seed to keep torrent alive Format : Matroska Format version : Version 4 / Version 2 File size : 1.09 GiB Duration : 58mn 58s Overall bit rate : 2 657 Kbps Video ID : 1 Format : AVC Format/Info : Advanced Video Codec Format profile : High@L3.1 Format settings, CABAC : Yes Format settings, ReFrames : 4 frames Codec ID : V_MPEG4/ISO/AVC Duration : 58mn 58s Bit rate : 2 268 Kbps Width : 720 pixels Height : 576 pixels Display aspect ratio : 16:9 Original display aspect ratio : 5:4 Frame rate mode : Constant Frame rate : 25.000 fps Standard : PAL Color space : YUV Chroma subsampling : 4:2:0 Bit depth : 8 bits Scan type : Progressive Bits/(Pixel*Frame) : 0.219 Stream size : 936 MiB (84%) Writing library : x264 core 130 r2274bm c832fe9 Language : English Default : Yes Forced : No Audio ID : 2 Format : AC-3 Format/Info : Audio Coding 3 Mode extension : CM (complete main) Format settings, Endianness : Big Codec ID : A_AC3 Duration : 58mn 58s Bit rate mode : Constant Bit rate : 384 Kbps Channel(s) : 6 channels Channel positions : Front: L C R, Side: L R, LFE Sampling rate : 48.0 KHz Bit depth : 16 bits Compression mode : Lossy Delay relative to video : 128ms Stream size : 162 MiB (14%) Language : English Default : Yes Forced : No Text ID : 3 Format : VobSub Muxing mode : zlib Codec ID : S_VOBSUB Codec ID/Info : The same subtitle format used on DVDs Language : English Default : Yes Forced : No
Hotel.Hell.S02E07.HDTV.x264-LOL.[eztv].torrent EZTV http://www.bt-chat.com/rss.php?group=3 eztv http://www.bt-chat.com/users.php?id=313 http://www.bt-chat.com/details.php%3Fid%3D196220 2014-09-03T00:46:42-05:00 1999-11-30T00:00:00.1-05:00
Help us by donating with Bitcoin: 1EZTVaGQ6UsjYJ9fwqGnd45oZ6HGT7WKZd #EZTV -> To avoid fakes, ALWAYS check that the torrent was added by eztv. https://eztv.it/ Episode: Hotel Hell S02E07 HDTV x264-LOL Screenshots:
Drunk.History.S02E10.HDTV.x264-KILLERS.[VTV].torrent VTV http://www.bt-chat.com/rss.php?group=2 vtv http://www.bt-chat.com/users.php?id=285 http://www.bt-chat.com/details.php%3Fid%3D196219 2014-09-03T00:08:34-05:00 1999-11-30T00:00:00.2-05:00
 
Americas.Next.Top.Model.S21E03.HDTV.x264-BAJSKORV.[eztv].torrent EZTV http://www.bt-chat.com/rss.php?group=3 eztv http://www.bt-chat.com/users.php?id=313 http://www.bt-chat.com/details.php%3Fid%3D196218 2014-09-02T23:57:22-05:00 1999-11-30T00:00:00.3-05:00
Help us by donating with Bitcoin: 1EZTVaGQ6UsjYJ9fwqGnd45oZ6HGT7WKZd #EZTV -> To avoid fakes, ALWAYS check that the torrent was added by eztv. https://eztv.it/ Episode: Americas Next Top Model S21E03 HDTV x264-BAJSKORV Screenshots:
Dallas.2012.S03E11.HDTV.x264-LOL.[eztv].torrent EZTV http://www.bt-chat.com/rss.php?group=3 eztv http://www.bt-chat.com/users.php?id=313 http://www.bt-chat.com/details.php%3Fid%3D196217 2014-09-02T23:41:01-05:00 1999-11-30T00:00:00.4-05:00
Help us by donating with Bitcoin: 1EZTVaGQ6UsjYJ9fwqGnd45oZ6HGT7WKZd #EZTV -> To avoid fakes, ALWAYS check that the torrent was added by eztv. https://eztv.it/ Episode: Dallas 2012 S03E11 HDTV x264-LOL Screenshots:
Partners.2014.S01E10.HDTV.x264-LOL.[eztv].torrent EZTV http://www.bt-chat.com/rss.php?group=3 eztv http://www.bt-chat.com/users.php?id=313 http://www.bt-chat.com/details.php%3Fid%3D196216 2014-09-02T23:39:35-05:00 1999-11-30T00:00:00.5-05:00
Help us by donating with Bitcoin: 1EZTVaGQ6UsjYJ9fwqGnd45oZ6HGT7WKZd #EZTV -> To avoid fakes, ALWAYS check that the torrent was added by eztv. https://eztv.it/ Episode: Partners 2014 S01E10 HDTV x264-LOL Screenshots:
Partners.2014.S01E09.HDTV.x264-LOL.[eztv].torrent EZTV http://www.bt-chat.com/rss.php?group=3 eztv http://www.bt-chat.com/users.php?id=313 http://www.bt-chat.com/details.php%3Fid%3D196215 2014-09-02T23:28:59-05:00 1999-11-30T00:00:00.6-05:00
Help us by donating with Bitcoin: 1EZTVaGQ6UsjYJ9fwqGnd45oZ6HGT7WKZd #EZTV -> To avoid fakes, ALWAYS check that the torrent was added by eztv. https://eztv.it/ Episode: Partners 2014 S01E09 HDTV x264-LOL Screenshots:
Royal.Pains.S06E13.HDTV.x264-KILLERS.[VTV].torrent VTV http://www.bt-chat.com/rss.php?group=2 vtv http://www.bt-chat.com/users.php?id=285 http://www.bt-chat.com/details.php%3Fid%3D196214 2014-09-02T22:54:04-05:00 1999-11-30T00:00:00.7-05:00
 
MasterChef.US.S05E15.HDTV.x264-LOL.[eztv].torrent EZTV http://www.bt-chat.com/rss.php?group=3 eztv http://www.bt-chat.com/users.php?id=313 http://www.bt-chat.com/details.php%3Fid%3D196213 2014-09-02T21:42:16-05:00 1999-11-30T00:00:00.8-05:00
Help us by donating with Bitcoin: 1EZTVaGQ6UsjYJ9fwqGnd45oZ6HGT7WKZd #EZTV -> To avoid fakes, ALWAYS check that the torrent was added by eztv. https://eztv.it/ Episode: MasterChef US S05E15 HDTV x264-LOL Screenshots:
Under.the.Dome.S02E10.720p.HDTV.X264-DIMENSION.[eztv].torrent EZTV http://www.bt-chat.com/rss.php?group=3 eztv http://www.bt-chat.com/users.php?id=313 http://www.bt-chat.com/details.php%3Fid%3D196212 2014-09-02T21:41:38-05:00 1999-11-30T00:00:00.9-05:00
Help us by donating with Bitcoin: 1EZTVaGQ6UsjYJ9fwqGnd45oZ6HGT7WKZd #EZTV -> To avoid fakes, ALWAYS check that the torrent was added by eztv. https://eztv.it/ Episode: Under the Dome S02E10 720p HDTV X264-DIMENSION Screenshots:
Under.the.Dome.S02E10.HDTV.x264-LOL.[eztv].torrent EZTV http://www.bt-chat.com/rss.php?group=3 eztv http://www.bt-chat.com/users.php?id=313 http://www.bt-chat.com/details.php%3Fid%3D196211 2014-09-02T21:35:41-05:00 1999-11-30T00:00:00.10-05:00
Help us by donating with Bitcoin: 1EZTVaGQ6UsjYJ9fwqGnd45oZ6HGT7WKZd #EZTV -> To avoid fakes, ALWAYS check that the torrent was added by eztv. https://eztv.it/ Episode: Under the Dome S02E10 HDTV x264-LOL Screenshots:
STV.Yes.or.No.The.Debate.PDTV.x264.AAC.MVGroup.Forum.mkv.torrent MVGroup http://www.bt-chat.com/rss.php?group=232 artistharry http://www.bt-chat.com/users.php?id=74598 http://www.bt-chat.com/details.php%3Fid%3D196210 2014-09-02T20:49:01-05:00 1999-11-30T00:00:00.11-05:00
Yes or No: The Debate Sociopolitical Documentary hosted by Bernard Ponsonby, published by STV in 2014 - English narration http://image.bayimg.com/fb6608fdeb09160c40919abf21667ee51a2ea869.jpg Information ------------------------------ Leading members from both sides of the Referendum campaign go head-to-head in a live debate in front of an audience of voters at The Assembly Rooms in Edinburgh. Presented by Bernard Ponsonby. Screenshots ------------------------------ http://image.bayimg.com/72c1cfaa4250e35bcf0217f51b4b6eca5822983b.jpg http://image.bayimg.com/553fd81f720310844f1d7311f4c754b0683e0f93.jpg http://image.bayimg.com/b3b90e477148dd2383ca149dce52171811d18960.jpg Technical Specs ------------------------------ * Video Codec: x264 CABAC Main@L3.1 * Video Bitrate: CRF 22 (~843Kbps) * Video Resolution: 832x468 * Video Aspect Ratio: 16:9 * Frames Rate: 25 FPS * Audio Codec: HE-AAC * Audio Bitrate: Q=0.25 VBR 24KHz (~61Kbps) * Audio Channels: 2 * Run-Time: 105 mins * Number Of Parts: 1 * Part Size: 692 MB * Source: HDTV * Encoded by: JungleBoy Links ------------------------------ 1) Further Information * http://player.stv.tv/programmes/yes-or-no/ 2) Related Documentaries * http://docuwiki.net/?title=Scotland%20Decides%3A%20Salmond%20versus%20Darling * http://docuwiki.net/?title=Salmond%20and%20Darling%3A%20The%20Debate * http://docuwiki.net/?title=Scotland%3A%20For%20Richer%20or%20Poorer * http://docuwiki.net/?title=Scotland%27s%20Smoking%20Gun 3) ed2k Links "ed2k://|file|STV.Yes.or.No.The.Debate.PDTV.x264.AAC.MVGroup.Forum.mkv|725755836|e9d1ae0d591b89de1dcf3e1174b258d8|/" Added by http://docuwiki.net/?title=User%3AJungleBoy Source: http://docuwiki.net/index.php?title=Yes_or_No:_The_Debate
Ancient.Mysteries.Who.Built.the.Catacombs.XviD.[MVGroup.org].torrent EZTV http://www.bt-chat.com/rss.php?group=3 eztv http://www.bt-chat.com/users.php?id=313 http://www.bt-chat.com/details.php%3Fid%3D196209 2014-09-02T16:41:27-05:00 1999-11-30T00:00:00.12-05:00
Help us by donating with Bitcoin: 1EZTVaGQ6UsjYJ9fwqGnd45oZ6HGT7WKZd #EZTV -> To avoid fakes, ALWAYS check that the torrent was added by eztv. https://eztv.it/ Episode: Ancient Mysteries Who Built the Catacombs XviD [MVGroup org] Screenshots:
The Mortal Instruments City of Bones (2013) BDrip 1080p ITA-ENG x264 - Shadowhunters Città di Ossa.torrent Verified http://www.bt-chat.com/rss.php?group=230 ShivaShanti http://www.bt-chat.com/users.php?id=3590 http://www.bt-chat.com/details.php%3Fid%3D196208 2014-09-02T16:15:57-05:00 1999-11-30T00:00:00.13-05:00
Year: 2013 Genre: Action, Adventure, Fantasy Cast: Lily Collins, Jamie Campbell Bower, Lena Headey, Jonathan Rhys Meyers, Robert Sheehan, Kevin Zegers, Jared Harris, Kevin Durand, Jemima West, Godfrey Gao, CCH Pounder, Robert Maillet Director: Harald Zwart Audio: Italian, English Subtitles: Italian, English INFO: http://www.imdb.com/title/tt1538403/ http://en.wikipedia.org/wiki/The_Mortal_Instruments:_City_of_Bones TECHNICAL DATA: Size: 8146 Mb Runtime: 2h 10m 21s Video Codec: x264 Average Quantizer: 21.405 Container: Matroska (.mkv) Resolution: 1920x800 Video Bitrate: 6583 kbps FPS (Frames/sec): 24 Qf: 0.178 Audio 1 (Italian): DTS 5.1 1536 kbps Audio 2 (English): Ac3 5.1 640 kbps SCREENSHOTS: http://i.imgbox.com/ldyw9mWO.jpg http://i.imgbox.com/tMNRIpu6.jpg http://i.imgbox.com/OcuQsBTc.jpg http://i.imgbox.com/xO6QljEn.jpg http://i.imgbox.com/wNCliznB.jpg http://i.imgbox.com/pNZQsqdm.jpg http://i.imgbox.com/MVFgaciv.jpg http://i.imgbox.com/elkaSEEm.jpg http://i.imgbox.com/MBRdzGcQ.jpg http://i.imgbox.com/6XmY7v7J.jpg
ITV.Tonight.The.Food.We.Eat.2of4.Superfoods.Fact.or.Fiction.720p.HDTV.x264.AAC.MVGroup.org.mp4.torrent MVGroup http://www.bt-chat.com/rss.php?group=232 artistharry http://www.bt-chat.com/users.php?id=74598 http://www.bt-chat.com/details.php%3Fid%3D196207 2014-09-02T14:44:01-05:00 1999-11-30T00:00:00.14-05:00
The Food We Eat Science Documentary hosted by Jonathan Maitland, published by ITV broadcasted as part of ITV Tonight series in 2014 - English narration http://image.bayimg.com/5879686b554b42cb1ea82c8a1754cafd5531ce82.jpg Information ------------------------------ ITV Tonight: The Food We Eat We\re a nation obsessed with cookery shows, recipe books and celebrity chefs. Yet it seems we\re spending less time than ever doing it for real. 1) Cant Cook or Wont Cook? One in five families eat convenience foods at least three times a week and a government survey showed only one in six mothers cook from scratch every day. In the first of four food programmes over the next fortnight, the Tonight programme investigates why some of us can\t cook or won\t cook and what can be done to get Britain back in the kitchen. The UK has the largest consumption of ready meals in Europe. It\s no surprise; they are cheap, convenient and easy. A few minutes in a microwave and dinner is served. But for some families the ready meal isn\t always the first choice, it\s sometimes the only choice. 2) Superfoods: Fact or Fiction? With more research being done into the link between what we eat and how we feel, the health-food industry is booming, and so-called superfoods are leading the way. Many people admit to buying such products because they believe they make them feel significantly better - but is this true? Jonathan Maitland investigates whether superfood claims are fact or fiction 3) Fresh vs Frozen Food Seventy years ago, when the coldest thing in your house was a pantry, most of the food we ate was harvested, sent straight to the shops and would have been on our plates before it started to go off. However, the advent of the home freezer and advances in various preservation techniques changed all of that and now we\re used to eating what we want, when we want, regardless of the time of year when the food is actually grown. So how do they keep the food for so long? And does the quality stay the same? 4) Future Foods By 2050 the world\s population is estimated to reach over 9 billion, 30% larger than it currently is. If we continue to farm and eat the way we do today, we\d potentially need an additional landmass the size of Europe to produce enough food to meet the growing demand. So what does the future of food look like and how will we grow enough food for us all to eat in the years to come? In Tonight\s programme we visit some of the urban ventures that are maximising the use of public space to grow fruit and vegetables and teach the next generation how to farm. We speak to the owner of an indoor miniature farm housed inside a small shop about the new aquaponic technology he uses, and we go 100 feet below ground to see how one entrepreneur is growing high-value salad crops in old WWII bomb shelters, four storeys beneath the London Underground! Screenshots ------------------------------ click on the thumbnails below to get full-size images http://image.bayimg.com/0d200e195417d6e4cdec32e06899a973e9bd1990.jpg http://image.bayimg.com/b8d842363e0236875a61f30b0e40748f4941afdb.jpg http://image.bayimg.com/0f5b75de155cb0eae97ed7693a62776f716c44fa.jpg http://image.bayimg.com/d1fdad9420c094c198706dc9c3af4874cc5bb06e.jpg http://image.bayimg.com/d9887ec51cdae2f424e3509061c9df646c160da2.jpg http://image.bayimg.com/440a223b5b35dd56004544bbfc082b58bf84150f.jpg http://image.bayimg.com/57570047a7c76a8b3efd7c4f7ae32fc956c8999e.jpg http://image.bayimg.com/c89a54d2bf935cc7cc7a029b6ff07b877614b48d.jpg http://image.bayimg.com/a89c168066ad87e7c28ea486adfc15fa4a06a836.jpg http://image.bayimg.com/ed431a296887b41ad6334741f5142fd2be3d0a1c.jpg http://image.bayimg.com/6a706a5c3cb9422e12febc485e0ce2ed0fe8681a.jpg http://image.bayimg.com/dbfc68717a80a5258d3445c8888da5babf21f665.jpg http://image.bayimg.com/313cda3563f56e87b8f4c1baae79a22099d6858d.jpg http://image.bayimg.com/2cddeb403a0fdc7813bdd0343794ca7ed0cebb56.jpg http://image.bayimg.com/76f5cbce3182fbdf6638b6e919c5dfde519b981b.jpg http://image.bayimg.com/9bbdefab86035d7dcf9d4924224c409efed35e6a.jpg Technical Specs ------------------------------ * Video Codec: x264 CABAC High@L4.1 * Video Bitrate: 3170 Kbps * Video Aspect Ratio: 1.778 (16:9) * Video Resolution: 1280 x 720 * Audio Codec: AAC LC * Audio English * Audio Bitrate: 160 Kbps VBR 48KHz * Audio Channels: Stereo 2 * Run-Time: 25mins * Framerate: 25FPS * Number of Parts: 4 * Container Mp4 * Part Size: average 550 MB * Source: HDTV * Encoded by: Harry65 Links ------------------------------ 1) Further Information * http://www.itv.com/news/2014-08-18/tonight-the-food-we-eat-cant-cook-or-wont-cook/ * http://www.itv.com/news/2014-08-21/tonight-the-food-we-eat-superfoods-fact-or-fiction/ * http://www.itv.com/news/2014-08-28/tonight-the-food-we-eat-fresh-vs-frozen-food/ * http://www.itv.com/news/2014-09-01/tonight-the-food-we-eat-future-foods/ 2) Related Documentaries * http://docuwiki.net/?title=Future%20of%20Food * http://docuwiki.net/?title=The%20Truth%20about%20Low%20Fat%20Food * http://docuwiki.net/?title=Food%3A%20Whats%20Really%20In%20Your%20Trolley%3F * http://docuwiki.net/?title=Food%20Prices%3A%20The%20Shocking%20Truth * http://docuwiki.net/?title=Tricks%20of%20the%20Junk%20Food%20Business * http://docuwiki.net/?title=Supermarkets%3A%20The%20Real%20Price%20of%20Cheap%20Food * http://docuwiki.net/?title=The%20Truth%20About%20Taste * http://docuwiki.net/?title=We%20Feed%20the%20World
BBC.Return.to.Betjemanland.HDTV.x264.AAC.MVGroup.org.mkv.torrent MVGroup http://www.bt-chat.com/rss.php?group=232 artistharry http://www.bt-chat.com/users.php?id=74598 http://www.bt-chat.com/details.php%3Fid%3D196206 2014-09-02T13:31:44-05:00 1999-11-30T00:00:00.15-05:00
Return to Betjemanland Arts Documentary hosted by AN Wilson, published by BBC in 2014 - English narration http://image.bayimg.com/6c95155122c31465daab81e755e4b03d4d2273f9.jpg Information ------------------------------ Thirty years ago, Sir John Betjeman died and was buried at St Enodoc Church, close to the village of Tribetherick in north Cornwall. To commemorate Betjeman\s death the writer, critic and biographer of Betjeman, AN Wilson, visits the real and imagined places that shaped his life to reveal the life and work of the poet and broadcaster. Wilson explores how Betjeman came to speak to, and for, the nation in a remarkable way. As a poet Betjeman was writing popular verse for the many, not the few. With his brilliant documentaries for television, Betjeman entertained millions with infectious enthusiasm as he explained his many passions and bugbears. As a campaigner to preserve the national heritage, Betjeman was tireless in his devotion to conservation and preservation, fighting the planners, politicians and developers - railing against their abuse of power and money. Wilson investigates this by visiting locations in London, Oxford, Cornwall, Somerset and Berkshire. He travels through a landscape of beautiful houses and churches, beaches and seaside piers - a place that Wilson calls Betjemanland. In doing so he also reveals the complexity and contradictions of Betjeman - how Betjeman, the snob with a love of aristocrats and their country houses, is the same person who is thrilled by the more proletarian pleasures of the Great British seaside; how the poetry of Betjeman shows us that he is haunted by childhood memory, has religious faith but also doubt and is in thrall to love and infatuation; and how the man his friends called Betjeman was full of joie de vivre, but also suffered great melancholy and guilt whilst living an agonised double life. Screenshots ------------------------------ http://image.bayimg.com/e755bb4b6376693ab57cc0ffd25d7ca298a16b23.jpg http://image.bayimg.com/94c1bf3cc1aa53bbde39e64c893268b5c88d5f11.jpg http://image.bayimg.com/aaea23757dbb638264f40425524ac75fff3e54e6.jpg http://image.bayimg.com/2f8561a14f7da1cbe70e1d7ece5575565af0eaa3.jpg http://image.bayimg.com/415f9e4abc9fe5ec0baacb1be5455980cc3bf5fd.jpg http://image.bayimg.com/227671d60d01ad5c0931aa948d8103f4945a54b3.jpg http://image.bayimg.com/7ef43a5df22c7c82b88c11a57a46e4da801fe222.jpg http://image.bayimg.com/925fe5ce0087839bafde20cead92ab7847699f28.jpg http://image.bayimg.com/5b353db857377d16f629f56faf791f3d3b757215.jpg Technical Specs ------------------------------ 1) HD Version * Video Codec: x264 CABAC High@L4.1 * Video Bitrate: CRF 22 (~3891Kbps) * Video Aspect Ratio: 16:9 * Video Resolution: 1920x1080 * Frames Rate: 25 FPS * Audio Codec: AAC-LC * Audio Bitrate: Q=0.45 VBR 44.1KHz (~132Kbps) * Audio Channels: 2 * Run-Time: 59 mins * Number of Parts: 1 * Part Size: 1.69 GB * Source: HDTV * Encoded by: JungleBoy Links ------------------------------ 1) Further Information * http://www.bbc.co.uk/programmes/b04gb6nl
BBC.Return.to.Betjemanland.PDTV.x264.AAC.MVGroup.org.mkv.torrent MVGroup http://www.bt-chat.com/rss.php?group=232 artistharry http://www.bt-chat.com/users.php?id=74598 http://www.bt-chat.com/details.php%3Fid%3D196205 2014-09-02T13:27:31-05:00 1999-11-30T00:00:00.16-05:00
Return to Betjemanland Arts Documentary hosted by AN Wilson, published by BBC in 2014 - English narration http://image.bayimg.com/6c95155122c31465daab81e755e4b03d4d2273f9.jpg Information ------------------------------ Thirty years ago, Sir John Betjeman died and was buried at St Enodoc Church, close to the village of Tribetherick in north Cornwall. To commemorate Betjeman\s death the writer, critic and biographer of Betjeman, AN Wilson, visits the real and imagined places that shaped his life to reveal the life and work of the poet and broadcaster. Wilson explores how Betjeman came to speak to, and for, the nation in a remarkable way. As a poet Betjeman was writing popular verse for the many, not the few. With his brilliant documentaries for television, Betjeman entertained millions with infectious enthusiasm as he explained his many passions and bugbears. As a campaigner to preserve the national heritage, Betjeman was tireless in his devotion to conservation and preservation, fighting the planners, politicians and developers - railing against their abuse of power and money. Wilson investigates this by visiting locations in London, Oxford, Cornwall, Somerset and Berkshire. He travels through a landscape of beautiful houses and churches, beaches and seaside piers - a place that Wilson calls Betjemanland. In doing so he also reveals the complexity and contradictions of Betjeman - how Betjeman, the snob with a love of aristocrats and their country houses, is the same person who is thrilled by the more proletarian pleasures of the Great British seaside; how the poetry of Betjeman shows us that he is haunted by childhood memory, has religious faith but also doubt and is in thrall to love and infatuation; and how the man his friends called Betjeman was full of joie de vivre, but also suffered great melancholy and guilt whilst living an agonised double life. Screenshots ------------------------------ http://image.bayimg.com/e755bb4b6376693ab57cc0ffd25d7ca298a16b23.jpg http://image.bayimg.com/94c1bf3cc1aa53bbde39e64c893268b5c88d5f11.jpg http://image.bayimg.com/aaea23757dbb638264f40425524ac75fff3e54e6.jpg http://image.bayimg.com/2f8561a14f7da1cbe70e1d7ece5575565af0eaa3.jpg http://image.bayimg.com/415f9e4abc9fe5ec0baacb1be5455980cc3bf5fd.jpg http://image.bayimg.com/227671d60d01ad5c0931aa948d8103f4945a54b3.jpg http://image.bayimg.com/7ef43a5df22c7c82b88c11a57a46e4da801fe222.jpg http://image.bayimg.com/925fe5ce0087839bafde20cead92ab7847699f28.jpg http://image.bayimg.com/5b353db857377d16f629f56faf791f3d3b757215.jpg Technical Specs ------------------------------ 1) HD Version * Video Codec: x264 CABAC High@L4.1 * Video Bitrate: CRF 22 (~3891Kbps) * Video Aspect Ratio: 16:9 * Video Resolution: 1920x1080 * Frames Rate: 25 FPS * Audio Codec: AAC-LC * Audio Bitrate: Q=0.45 VBR 44.1KHz (~132Kbps) * Audio Channels: 2 * Run-Time: 59 mins * Number of Parts: 1 * Part Size: 1.69 GB * Source: HDTV * Encoded by: JungleBoy 2) SD Version * Video Codec: x264 CABAC Main@L3.1 * Video Bitrate: CRF 20 (~1161Kbps) * Video Resolution: 832x468 * Video Aspect Ratio: 16:9 * Frames Rate: 25 FPS * Audio Codec: AAC-LC * Audio Bitrate: Q=0.45 VBR 44.1KHz (~132Kbps) * Audio Channels: 2 * Run-Time: 59 mins * Number of Parts: 1 * Part Size: 556 MB * Source: HDTV * Encoded by: JungleBoy Links ------------------------------ 1) Further Information * http://www.bbc.co.uk/programmes/b04gb6nl 2) Related Documentaries * http://docuwiki.net/?title=Narnia%27s%20Lost%20Poet%3A%20The%20Secret%20Lives%20and%20Loves%20of%20CS%20Lewis%20%28BBC%29 * http://docuwiki.net/?title=Great%20Scots%3A%20The%20Writers%20who%20Shaped%20a%20Nation * http://docuwiki.net/?title=Under%20Milk%20Wood%20by%20Dylan%20Thomas * http://docuwiki.net/?title=Great%20Poets%20in%20Their%20Own%20Words * http://docuwiki.net/?title=Seamus%20Heaney%3A%20Out%20of%20the%20Marvellous * http://docuwiki.net/?title=The%20Brilliant%20Bronte%20Sisters * http://docuwiki.net/?title=The%20Real%20Jane%20Austen * http://docuwiki.net/?title=The%20Trouble%20with%20Tolstoy * http://docuwiki.net/?title=Great%20Books%3A%20Great%20Expectations * http://docuwiki.net/?title=The%20War%20Poets 3) ed2k Links "ed2k://|file|BBC.Return.to.Betjemanland.HDTV.x264.AAC.MVGroup.org.mkv|1816166949|f3e230b5eaeb21219d49982fbda47421|/" OR "ed2k://|file|BBC.Return.to.Betjemanland.PDTV.x264.AAC.MVGroup.org.mkv|582957926|b5bef7f6ce92a6cefb5189b1c939ba01|/" Added by http://docuwiki.net/?title=User%3AJungleBoy Source: http://docuwiki.net/index.php?title=Return_to_Betjemanland
BBC-HD The Two Amigos, A Gaucho Adventure 1 of 2 HDTV x264 AC3 720p.mkv.torrent Verified http://www.bt-chat.com/rss.php?group=230 Pharos2001 http://www.bt-chat.com/users.php?id=46734 http://www.bt-chat.com/details.php%3Fid%3D196204 2014-09-02T12:50:38-05:00 1999-11-30T00:00:00.17-05:00
59:05 Home movie footage from the early 1990s shows John and Simon holidaying in Florida when they were, in their own words, \free spirits... and very lonely\. After a couple of essential riding lessons in the UK, they don the \poncho of freedom\ and set off for Argentina\s capital Buenos Aires. From here, their first task is to get to a local gaucho festival near the town of Pilar. Air drumming to their favourite tunes, with Simon attempting to map read and John dodging the crazy drivers of the capital, the friends get the road trip off to a high-spirited start. After a hair-raising, pothole-dodging drive with Simon at the wheel (he only passed his test in his 40s), they arrive at La Pelada Estancia near the small town of Esquina, their home for a week of intense training. The ranch, on the banks of the Corrientes River, employs a dozen gauchos who train over a hundred native creole horses and manage five thousand cattle. The head honcho, the dashing Dario Gallardo, soon has Argentina\s newest gauchos bedecked in traditional ponchos riding comfortably on two of the estancia\s sturdiest horses. After a tough but highly successful week, the Two Amigos\ training is over. In front of them lies some real gaucho work - a three-day-and-night cattle drive in the wilds of Patagonia - quite a challenge for two middle-aged comic actors with soft hands. Will they be able to find the true gaucho within? Source: BBC TWO-HD TS[AVC/AC3] DDD AVC 1080i > x264 720p (H264 main @L4.1 AVCHD) 2pass approx. 3.3Mbps AC3 2.0 original stream mux [Dolby Digital] Size: 1.46Gb - 1/3 DVD High quality encode. Enjoy, Pls help seed to keep torrent alive Format : Matroska Format version : Version 4 / Version 2 File size : 1.46 GiB Duration : 59mn 5s Overall bit rate : 3 529 Kbps Video ID : 1 Format : AVC Format/Info : Advanced Video Codec Format profile : High@L4.1 Format settings, CABAC : Yes Format settings, ReFrames : 4 frames Codec ID : V_MPEG4/ISO/AVC Duration : 59mn 5s Bit rate : 3 336 Kbps Width : 1 280 pixels Height : 720 pixels Display aspect ratio : 16:9 Frame rate mode : Constant Frame rate : 25.000 fps Color space : YUV Chroma subsampling : 4:2:0 Bit depth : 8 bits Scan type : Progressive Bits/(Pixel*Frame) : 0.145 Stream size : 1.35 GiB (93%) Writing library : x264 core 130 r2274bm c832fe9 Language : English Default : Yes Forced : No Audio ID : 2 Format : AC-3 Format/Info : Audio Coding 3 Mode extension : CM (complete main) Format settings, Endianness : Big Codec ID : A_AC3 Duration : 59mn 5s Bit rate mode : Constant Bit rate : 192 Kbps Channel(s) : 2 channels Channel positions : Front: L R Sampling rate : 48.0 KHz Bit depth : 16 bits Compression mode : Lossy Delay relative to video : 120ms Stream size : 81.2 MiB (5%) Language : English Default : Yes Forced : No
ITV.Tonight.The.Food.We.Eat.1of4.Cant.Cook.or.Wont.Cook.720p.HDTV.x264.AAC.MVGroup.org.mp4.torrent MVGroup http://www.bt-chat.com/rss.php?group=232 artistharry http://www.bt-chat.com/users.php?id=74598 http://www.bt-chat.com/details.php%3Fid%3D196203 2014-09-02T12:04:59-05:00 1999-11-30T00:00:00.18-05:00
The Food We Eat Science Documentary hosted by Jonathan Maitland, published by ITV broadcasted as part of ITV Tonight series in 2014 - English narration http://image.bayimg.com/5879686b554b42cb1ea82c8a1754cafd5531ce82.jpg Information ------------------------------ ITV Tonight: The Food We Eat We\re a nation obsessed with cookery shows, recipe books and celebrity chefs. Yet it seems we\re spending less time than ever doing it for real. 1) Cant Cook or Wont Cook? One in five families eat convenience foods at least three times a week and a government survey showed only one in six mothers cook from scratch every day. In the first of four food programmes over the next fortnight, the Tonight programme investigates why some of us can\t cook or won\t cook and what can be done to get Britain back in the kitchen. The UK has the largest consumption of ready meals in Europe. It\s no surprise; they are cheap, convenient and easy. A few minutes in a microwave and dinner is served. But for some families the ready meal isn\t always the first choice, it\s sometimes the only choice. 2) Superfoods: Fact or Fiction? With more research being done into the link between what we eat and how we feel, the health-food industry is booming, and so-called superfoods are leading the way. Many people admit to buying such products because they believe they make them feel significantly better - but is this true? Jonathan Maitland investigates whether superfood claims are fact or fiction 3) Fresh vs Frozen Food Seventy years ago, when the coldest thing in your house was a pantry, most of the food we ate was harvested, sent straight to the shops and would have been on our plates before it started to go off. However, the advent of the home freezer and advances in various preservation techniques changed all of that and now we\re used to eating what we want, when we want, regardless of the time of year when the food is actually grown. So how do they keep the food for so long? And does the quality stay the same? 4) Future Foods By 2050 the world\s population is estimated to reach over 9 billion, 30% larger than it currently is. If we continue to farm and eat the way we do today, we\d potentially need an additional landmass the size of Europe to produce enough food to meet the growing demand. So what does the future of food look like and how will we grow enough food for us all to eat in the years to come? In Tonight\s programme we visit some of the urban ventures that are maximising the use of public space to grow fruit and vegetables and teach the next generation how to farm. We speak to the owner of an indoor miniature farm housed inside a small shop about the new aquaponic technology he uses, and we go 100 feet below ground to see how one entrepreneur is growing high-value salad crops in old WWII bomb shelters, four storeys beneath the London Underground! Screenshots ------------------------------ click on the thumbnails below to get full-size images http://image.bayimg.com/0d200e195417d6e4cdec32e06899a973e9bd1990.jpg http://image.bayimg.com/b8d842363e0236875a61f30b0e40748f4941afdb.jpg http://image.bayimg.com/0f5b75de155cb0eae97ed7693a62776f716c44fa.jpg http://image.bayimg.com/d1fdad9420c094c198706dc9c3af4874cc5bb06e.jpg http://image.bayimg.com/d9887ec51cdae2f424e3509061c9df646c160da2.jpg http://image.bayimg.com/440a223b5b35dd56004544bbfc082b58bf84150f.jpg http://image.bayimg.com/57570047a7c76a8b3efd7c4f7ae32fc956c8999e.jpg http://image.bayimg.com/c89a54d2bf935cc7cc7a029b6ff07b877614b48d.jpg http://image.bayimg.com/a89c168066ad87e7c28ea486adfc15fa4a06a836.jpg http://image.bayimg.com/ed431a296887b41ad6334741f5142fd2be3d0a1c.jpg http://image.bayimg.com/6a706a5c3cb9422e12febc485e0ce2ed0fe8681a.jpg http://image.bayimg.com/dbfc68717a80a5258d3445c8888da5babf21f665.jpg http://image.bayimg.com/313cda3563f56e87b8f4c1baae79a22099d6858d.jpg http://image.bayimg.com/2cddeb403a0fdc7813bdd0343794ca7ed0cebb56.jpg http://image.bayimg.com/76f5cbce3182fbdf6638b6e919c5dfde519b981b.jpg http://image.bayimg.com/9bbdefab86035d7dcf9d4924224c409efed35e6a.jpg Technical Specs ------------------------------ * Video Codec: x264 CABAC High@L4.1 * Video Bitrate: 3170 Kbps * Video Aspect Ratio: 1.778 (16:9) * Video Resolution: 1280 x 720 * Audio Codec: AAC LC * Audio English * Audio Bitrate: 160 Kbps VBR 48KHz * Audio Channels: Stereo 2 * Run-Time: 25mins * Framerate: 25FPS * Number of Parts: 4 * Container Mp4 * Part Size: average 550 MB * Source: HDTV * Encoded by: Harry65 Links ------------------------------ 1) Further Information * http://www.itv.com/news/2014-08-18/tonight-the-food-we-eat-cant-cook-or-wont-cook/ * http://www.itv.com/news/2014-08-21/tonight-the-food-we-eat-superfoods-fact-or-fiction/ * http://www.itv.com/news/2014-08-28/tonight-the-food-we-eat-fresh-vs-frozen-food/ * http://www.itv.com/news/2014-09-01/tonight-the-food-we-eat-future-foods/ 2) Related Documentaries * http://docuwiki.net/?title=Future%20of%20Food * http://docuwiki.net/?title=The%20Truth%20about%20Low%20Fat%20Food * http://docuwiki.net/?title=Food%3A%20Whats%20Really%20In%20Your%20Trolley%3F * http://docuwiki.net/?title=Food%20Prices%3A%20The%20Shocking%20Truth * http://docuwiki.net/?title=Tricks%20of%20the%20Junk%20Food%20Business * http://docuwiki.net/?title=Supermarkets%3A%20The%20Real%20Price%20of%20Cheap%20Food * http://docuwiki.net/?title=The%20Truth%20About%20Taste * http://docuwiki.net/?title=We%20Feed%20the%20World
Ch4.Pakistans.Hidden.Shame.720p.HDTV.x264.AAC.MVGroup.org.mkv.torrent MVGroup http://www.bt-chat.com/rss.php?group=232 artistharry http://www.bt-chat.com/users.php?id=74598 http://www.bt-chat.com/details.php%3Fid%3D196202 2014-09-02T11:57:21-05:00 1999-11-30T00:00:00.19-05:00
Pakistan\s Hidden Shame Sociopolitical Documentary hosted by Juliet Stevenson, published by Channel 4 in 2014 - English narration http://image.bayimg.com/a60c47cedd0f72751103f5f52024ad1aa102c87c.jpg Information ------------------------------ Pakistan is one of the world\s most important Muslim nations. It\s a nuclear power, it\s allied to the West in the war against terror, and it\s a democracy. But Pakistan is also a country in denial, turning a blind eye to the sexual exploitation of many thousands of poor and vulnerable children. It\s estimated that over four million children across Pakistan are forced to work from an early age due to poverty, and, of these, up to one and a half million live on the streets. This documentary focuses on the north-western city of Peshawar, where it is estimated that nine out of ten street children have been sexually abused. The programme will open the eyes of the world to the dark underbelly that permeates this city and many others, including Karachi, Lahore, Rawalpindi and Pakistan\s capital, Islamabad. Written and produced by double-Emmy Award winner Jamie Doran, and directed by Special Emmy Winner Mohammed Al Naqvi. Narrated by Juliet Stevenson. Screenshots ------------------------------ http://image.bayimg.com/bd3bb77e89da1e0f468fa288d67b590d9702a656.jpg http://image.bayimg.com/bf9528ed656f2036ed888c8c1cd6866fd55461a4.jpg http://image.bayimg.com/929f746a798c6b5717225158518a33e7721e4dcb.jpg http://image.bayimg.com/c62b9507b2d23607d6ac76e673c119c003d79668.jpg http://image.bayimg.com/2a6b14840d1093974dd6c959fce4c882e4080557.jpg http://image.bayimg.com/b92d6fd7aaf0b142eefc0ae09717c8b093454eb7.jpg http://image.bayimg.com/5efa987fb912c31149c0b5066090842efd7fae02.jpg http://image.bayimg.com/e36a50cff61499e7c689376d9da01202032b33af.jpg http://image.bayimg.com/6acb5b0a4d524374c97c72acd6f2e2c14b940101.jpg Technical Specs ------------------------------ * Video Codec: x264 CABAC High@L4.1 * Video Bitrate: CRF 20 (~2715Kbps) * Video Resolution: 1280x720 * Video Aspect Ratio: 16:9 * Frames Rate: 25 FPS * Audio Codec: AAC-LC * Audio Bitrate: Q=0.47 VBR 44.1KHz (~128Kbps) * Audio Channels: 2 * Run-Time: 47 mins * Number Of Parts: 2 * Part Size: 975 MB * Source: HDTV * Encoded by: JungleBoy Links ------------------------------ 1) Further Information * http://www.channel4.com/programmes/pakistans-hidden-shame 2) Related Documentaries * http://docuwiki.net/?title=Pakistan%20on%20the%20Edge * http://docuwiki.net/?title=Secret%20Pakistan * http://docuwiki.net/?title=After%20the%20Deluge%20%28Pakistan%29 * http://docuwiki.net/?title=Pakistan%20-%20Defenders%20of%20Karachi * http://docuwiki.net/?title=Do%20You%20Let%20Your%20Kids%20Play%20Out%3F * http://docuwiki.net/?title=Child%20Sex%20Trade%20USA * http://docuwiki.net/?title=Abuse%20in%20America * http://docuwiki.net/?title=Selling%20Sex%20in%20Heaven * http://docuwiki.net/?title=Brazil%27s%20Child%20Prostitutes * http://docuwiki.net/?title=Jimmy%20Savile%20-%20What%20the%20BBC%20Knew 3) ed2k Links "ed2k://|file|Ch4.Pakistans.Hidden.Shame.720p.HDTV.x264.AAC.MVGroup.org.mkv|1022671089|8284bce3dbefd3cb94d06dd7e05c3456|/" Added by http://docuwiki.net/?title=User%3AJungleBoy Source: http://docuwiki.net/index.php?title=Pakistan\s_Hidden_Shame
ITV.The.Great.Train.Robbery.2012.480p.PDTV.x264.AAC.MVGroup.org.mp4.torrent MVGroup http://www.bt-chat.com/rss.php?group=232 artistharry http://www.bt-chat.com/users.php?id=74598 http://www.bt-chat.com/details.php%3Fid%3D196201 2014-09-02T09:13:22-05:00 1999-11-30T00:00:00.20-05:00
The Great Train Robbery History Documentary hosted by Jay Simpson, published by ITV in 2012 - English narration http://image.bayimg.com/8a8eb4d2f7701d5cce391c430e691b2dc2cab42a.jpg Information ------------------------------ The Great Train Robbery A look back at the August 1963 Royal Mail train heist, featuring interviews with key figures including Ronnie Biggs\ ex-wife Charmian, relatives of the robbers, and the police officers who discovered the gang\s hideout at Leatherslade Farm. The programme looks at how some media reports led to a popular perception of the culprits as folk heroes and considers the long-term impact the crime had on them. Some of the robbers are interviewed about the raid, including its planner, Bruce Reynolds, a man who sounds disconcertingly like the Peter Cook character EL Wisty. Your jaw will drop when another of the gang claims train driver Jack Mills, badly hurt after being hit on the head, thanked them for being "thorough gentlemen". Screenshots ------------------------------ click on the thumbnails below to get full-size images http://image.bayimg.com/c63d886b93eb8ffe6822a5aec53eb11aece48b61.jpg http://image.bayimg.com/179afb8f363c14dba98286c31724fd570087ce6b.jpg http://image.bayimg.com/3442888146eadb781333dfed0b855a0a4268f9dc.jpg http://image.bayimg.com/c54f6d71c6003d59a03fdfb2414993202fba0d1d.jpg http://image.bayimg.com/45bb41152adc889a5a5b507f2e5d98b854efb5cc.jpg http://image.bayimg.com/4bb7a4493b5d9c38cdc8316db940a55a590ab1b4.jpg http://image.bayimg.com/46afff18e88112e4beea20276cef934ede49ce8e.jpg http://image.bayimg.com/c2cb0e307e745cae77e849c3016a43485b557f07.jpg http://image.bayimg.com/1aad7e7c6658f5ffb279d7b0067f312ae5b26c2f.jpg http://image.bayimg.com/e3b482f34d263b83f15e6e029e3841e6d3980079.jpg http://image.bayimg.com/f99de00041c88ad473c9d25790da6e17e4121c41.jpg http://image.bayimg.com/ff39dfbe5c7dedf2150c01467fed1fd2e63bf954.jpg http://image.bayimg.com/592a45f523672988aff0ebb49be5ad82b0b57dc2.jpg http://image.bayimg.com/e7b998f63cd4f524503f3114d3dd511f6ce1d58a.jpg http://image.bayimg.com/a5324b83cbcb19d4452f91af80771be7478ab721.jpg http://image.bayimg.com/d8f720ec4a8ecabe47f61af786d525205c3d4038.jpg Technical Specs ------------------------------ * Video: Codec: x264 CABAC Main@L3.1 * Video: Bitrate: 2131 Kbps * Video: Resolution: 856 x 480 * Video: Aspect Ratio: 1.778 (16:9) * Audio: Codec: AAC LC * Audio: Bitrate: 128 Kbps VBR 48KHz * Audio: Channels: stereo (2/0) * Audio: English * Run-Time: 45mins * Framerate: 25fps * Number of Parts: 1 * Part Size: average 689 MB * Container: Mp4 * Source: PDTV * Encoded by: Harry65 Links ------------------------------ 1) Further Information * http://www.radiotimes.com/episode/sgmr4/the-great-train-robbery 2) Related Documentaries * http://docuwiki.net/?title=Great%20Crimes%20and%20Trials%3A%20Collection%201 * http://docuwiki.net/?title=Great%20Crimes%20and%20Trials%3A%20Collection%202 * http://docuwiki.net/?title=Crimes%20That%20Shook%20Britain%20Series%201
Millennium S03E05 - ...Thirteen Years Later DVDRIP x264 AC3 576p XD.mkv.torrent Verified http://www.bt-chat.com/rss.php?group=230 Pharos2001 http://www.bt-chat.com/users.php?id=46734 http://www.bt-chat.com/details.php%3Fid%3D196200 2014-09-02T01:48:04-05:00 1999-11-30T00:00:00.21-05:00
43:37 Source: DVD VOB[MPEG/AC3] DDD Chapters included (16 episodes remaining) MPEG 576p > x264 (High @L3.1) 2pass (1.09Gb) approx. 3.39Mbps AC3 192Kbps 48Khz Stream copy Enjoy, Pls help seed to keep torrent alive Format : Matroska Format version : Version 4 / Version 2 File size : 1.09 GiB Duration : 43mn 37s Overall bit rate : 3 587 Kbps Video ID : 1 Format : AVC Format/Info : Advanced Video Codec Format profile : High@L3.1 Format settings, CABAC : Yes Format settings, ReFrames : 4 frames Codec ID : V_MPEG4/ISO/AVC Duration : 43mn 37s Bit rate : 3 393 Kbps Width : 720 pixels Height : 576 pixels Display aspect ratio : 16:9 Original display aspect ratio : 5:4 Frame rate mode : Constant Frame rate : 25.000 fps Standard : PAL Color space : YUV Chroma subsampling : 4:2:0 Bit depth : 8 bits Scan type : Progressive Bits/(Pixel*Frame) : 0.327 Stream size : 1.01 GiB (93%) Writing library : x264 core 130 r2274bm c832fe9 Language : English Default : Yes Forced : No Audio ID : 2 Format : AC-3 Format/Info : Audio Coding 3 Format profile : Dolby Digital Mode extension : CM (complete main) Format settings, Endianness : Big Codec ID : A_AC3 Duration : 43mn 37s Bit rate mode : Constant Bit rate : 192 Kbps Channel(s) : 2 channels Channel positions : Front: L R Sampling rate : 48.0 KHz Bit depth : 16 bits Compression mode : Lossy Stream size : 59.9 MiB (5%) Language : English Default : Yes Forced : No Menu 00:00:00.000 : en:Chapter 1 00:03:22.040 : en:Chapter 2 00:04:06.800 : en:Chapter 3 00:07:47.960 : en:Chapter 4 00:12:19.360 : en:Chapter 5 00:16:27.760 : en:Chapter 6 00:18:34.800 : en:Chapter 7 00:20:32.000 : en:Chapter 8 00:22:52.360 : en:Chapter 9 00:27:40.360 : en:Chapter 10 00:30:32.840 : en:Chapter 11 00:32:02.000 : en:Chapter 12 00:37:40.360 : en:Chapter 13 00:40:45.040 : en:Chapter 14 00:42:59.400 : en:Chapter 15
Millennium S03E04 - Closure DVDRIP x264 AC3 576p XD.mkv.torrent Verified http://www.bt-chat.com/rss.php?group=230 Pharos2001 http://www.bt-chat.com/users.php?id=46734 http://www.bt-chat.com/details.php%3Fid%3D196199 2014-09-02T01:47:25-05:00 1999-11-30T00:00:00.22-05:00
43:42 Source: DVD VOB[MPEG/AC3] DDD Chapters included (17 episodes remaining) MPEG 576p > x264 (High @L3.1) 2pass (1.09Gb) approx. 3.39Mbps AC3 192Kbps 48Khz Stream copy Enjoy, Pls help seed to keep torrent alive Format : Matroska Format version : Version 4 / Version 2 File size : 1.09 GiB Duration : 43mn 42s Overall bit rate : 3 581 Kbps Video ID : 1 Format : AVC Format/Info : Advanced Video Codec Format profile : High@L3.1 Format settings, CABAC : Yes Format settings, ReFrames : 4 frames Codec ID : V_MPEG4/ISO/AVC Duration : 43mn 42s Bit rate : 3 387 Kbps Width : 720 pixels Height : 576 pixels Display aspect ratio : 16:9 Original display aspect ratio : 5:4 Frame rate mode : Constant Frame rate : 25.000 fps Standard : PAL Color space : YUV Chroma subsampling : 4:2:0 Bit depth : 8 bits Scan type : Progressive Bits/(Pixel*Frame) : 0.327 Stream size : 1.01 GiB (93%) Writing library : x264 core 130 r2274bm c832fe9 Language : English Default : Yes Forced : No Audio ID : 2 Format : AC-3 Format/Info : Audio Coding 3 Format profile : Dolby Digital Mode extension : CM (complete main) Format settings, Endianness : Big Codec ID : A_AC3 Duration : 43mn 42s Bit rate mode : Constant Bit rate : 192 Kbps Channel(s) : 2 channels Channel positions : Front: L R Sampling rate : 48.0 KHz Bit depth : 16 bits Compression mode : Lossy Stream size : 60.0 MiB (5%) Language : English Default : Yes Forced : No Menu 00:00:00.000 : en:Chapter 1 00:03:02.180 : en:Chapter 2 00:03:47.110 : en:Chapter 3 00:08:05.080 : en:Chapter 4 00:10:31.080 : en:Chapter 5 00:12:36.010 : en:Chapter 6 00:15:16.160 : en:Chapter 7 00:16:14.200 : en:Chapter 8 00:20:27.140 : en:Chapter 9 00:23:32.230 : en:Chapter 10 00:27:30.000 : en:Chapter 11 00:32:26.100 : en:Chapter 12 00:36:24.240 : en:Chapter 13 00:38:50.150 : en:Chapter 14 00:43:05.100 : en:Chapter 15
Mistresses.US.S02E13.HDTV.x264-LOL.[eztv].torrent EZTV http://www.bt-chat.com/rss.php?group=3 eztv http://www.bt-chat.com/users.php?id=313 http://www.bt-chat.com/details.php%3Fid%3D196198 2014-09-02T01:12:40-05:00 1999-11-30T00:00:00.23-05:00
Help us by donating with Bitcoin: 1EZTVaGQ6UsjYJ9fwqGnd45oZ6HGT7WKZd #EZTV -> To avoid fakes, ALWAYS check that the torrent was added by eztv. https://eztv.it/ Episode: Mistresses US S02E13 HDTV x264-LOL Screenshots:
New.Tricks.S11E03.HDTV.x264-TLA.[eztv].torrent EZTV http://www.bt-chat.com/rss.php?group=3 eztv http://www.bt-chat.com/users.php?id=313 http://www.bt-chat.com/details.php%3Fid%3D196197 2014-09-02T01:12:10-05:00 1999-11-30T00:00:00.24-05:00
Help us by donating with Bitcoin: 1EZTVaGQ6UsjYJ9fwqGnd45oZ6HGT7WKZd #EZTV -> To avoid fakes, ALWAYS check that the torrent was added by eztv. https://eztv.it/ Episode: New Tricks S11E03 HDTV x264-TLA Screenshots: