BT-Chat.com Follow the Swarm - Latest Torrents 2014-12-21T09:16:19-05:00 tag:bt-chat.com,2007:05 Knight.And.Day.2010.1080p.BluRay.H264.AAC-RARBG.torrent Verified http://www.bt-chat.com/rss.php?group=230 Drarbg http://www.bt-chat.com/users.php?id=143535 http://www.bt-chat.com/details.php%3Fid%3D201220 2014-12-21T06:16:13-05:00 1999-11-30T00:00:00.0-05:00
[URL]http://www.imdb.com/title/tt1013743/[/URL] [URL=http://imagecurl.com/viewer.php?file=72842487846353445031.png][IMG]http://imagecurl.com/images/72842487846353445031_thumb.png[/IMG][/URL] [URL=http://imagecurl.com/viewer.php?file=47647231479661468453.png][IMG]http://imagecurl.com/images/47647231479661468453_thumb.png[/IMG][/URL] [URL=http://imagecurl.com/viewer.php?file=49756622304778348212.png][IMG]http://imagecurl.com/images/49756622304778348212_thumb.png[/IMG][/URL] [URL=http://imagecurl.com/viewer.php?file=54375710351080660489.png][IMG]http://imagecurl.com/images/54375710351080660489_thumb.png[/IMG][/URL] [URL=http://imagecurl.com/viewer.php?file=66200750596426703889.png][IMG]http://imagecurl.com/images/66200750596426703889_thumb.png[/IMG][/URL] [mediainfo] Video ID : 1 Format : AVC Format/Info : Advanced Video Codec Format profile : High@L4.1 Format settings, CABAC : Yes Format settings, ReFrames : 4 frames Codec ID : avc1 Codec ID/Info : Advanced Video Coding Duration : 1h 49mn Bit rate : 2 500 Kbps Width : 1 920 pixels Height : 800 pixels Display aspect ratio : 2.40:1 Frame rate mode : Constant Frame rate : 23.976 fps Color space : YUV Chroma subsampling : 4:2:0 Bit depth : 8 bits Scan type : Progressive Bits/(Pixel*Frame) : 0.068 Stream size : 1.91 GiB (92%) Writing library : x264 core 142 r2491M 24e4fed Encoding settings : cabac=1 / ref=4 / deblock=1:-1:-1 / analyse=0x3:0x113 / me=umh / subme=9 / psy=1 / psy_rd=1.00:0.15 / mixed_ref=1 / me_range=24 / chroma_me=1 / trellis=2 / 8x8dct=1 / cqm=0 / deadzone=21,11 / fast_pskip=1 / chroma_qp_offset=-3 / threads=32 / lookahead_threads=4 / sliced_threads=0 / nr=0 / decimate=1 / interlaced=0 / bluray_compat=0 / constrained_intra=0 / bframes=3 / b_pyramid=2 / b_adapt=1 / b_bias=0 / direct=1 / weightb=1 / open_gop=0 / weightp=2 / keyint=250 / keyint_min=25 / scenecut=40 / intra_refresh=0 / rc_lookahead=50 / rc=2pass / mbtree=1 / bitrate=2500 / ratetol=1.0 / qcomp=0.60 / qpmin=0 / qpmax=69 / qpstep=4 / cplxblur=20.0 / qblur=0.5 / vbv_maxrate=31250 / vbv_bufsize=31250 / nal_hrd=none / filler=0 / ip_ratio=1.40 / aq=3:1.00 Encoded date : UTC 1904-01-01 00:00:00 Tagged date : UTC 1904-01-01 00:00:00 Audio ID : 2 Format : AAC Format/Info : Advanced Audio Codec Format profile : LC Codec ID : 40 Duration : 1h 49mn Bit rate mode : Constant Bit rate : 224 Kbps Channel(s) : 2 channels Channel(s)_Original : 6 channels Channel positions : Front: L C R, Side: L R, LFE Sampling rate : 48.0 KHz Compression mode : Lossy Stream size : 175 MiB (8%) Language : English Encoded date : UTC 1904-01-01 00:00:00 Tagged date : UTC 1904-01-01 00:00:00 [/mediainfo]
G.I.Joe.The.Rise.Of.Cobra.2009.1080p.BluRay.x264-METiS.torrent Verified http://www.bt-chat.com/rss.php?group=230 Drarbg http://www.bt-chat.com/users.php?id=143535 http://www.bt-chat.com/details.php%3Fid%3D201219 2014-12-21T06:14:30-05:00 1999-11-30T00:00:00.1-05:00
G.I. Joe: The Rise of Cobra (2009) ViDEO ......: 1920*800 @ 11.8 Mbps AUDiO ......: 1509 kbps DTS RUNTiME ....: 118 mins SUBTiTLES ..: N/A RATiNG .....: 5.9/10 (26,073 votes) http://www.imdb.com/title/tt1046173/ Screens: [url=http://imagecurl.com/viewer.php?file=36494012949522786231.png][img]http://imagecurl.com/images/36494012949522786231_thumb.png[/img][/url] [url=http://imagecurl.com/viewer.php?file=25416156271434332450.png][img]http://imagecurl.com/images/25416156271434332450_thumb.png[/img][/url] [url=http://imagecurl.com/viewer.php?file=69767687493793333885.png][img]http://imagecurl.com/images/69767687493793333885_thumb.png[/img][/url] [url=http://imagecurl.com/viewer.php?file=46057693693259877304.png][img]http://imagecurl.com/images/46057693693259877304_thumb.png[/img][/url] [url=http://imagecurl.com/viewer.php?file=39877801493536156357.png][img]http://imagecurl.com/images/39877801493536156357_thumb.png[/img][/url] [url=http://imagecurl.com/viewer.php?file=90733043959718510917.png][img]http://imagecurl.com/images/90733043959718510917_thumb.png[/img][/url] [mediainfo] Video ID : 1 Format : AVC Format/Info : Advanced Video Codec Format profile : High@L4.1 Format settings, CABAC : Yes Format settings, ReFrames : 5 frames Codec ID : V_MPEG4/ISO/AVC Duration : 1h 57mn Bit rate : 11.8 Mbps Width : 1 920 pixels Height : 800 pixels Display aspect ratio : 2.40:1 Frame rate mode : Constant Frame rate : 23.976 fps Color space : YUV Chroma subsampling : 4:2:0 Bit depth : 8 bits Scan type : Progressive Bits/(Pixel*Frame) : 0.319 Stream size : 9.47 GiB (87%) Writing library : x264 core 77 r1292 e381f6d Encoding settings : cabac=1 / ref=5 / deblock=1:0:0 / analyse=0x3:0x133 / me=umh / subme=7 / psy=1 / psy_rd=1.0:0.0 / mixed_ref=1 / me_range=16 / chroma_me=1 / trellis=1 / 8x8dct=1 / cqm=0 / deadzone=21,11 / chroma_qp_offset=-2 / threads=12 / nr=0 / decimate=1 / mbaff=0 / constrained_intra=0 / bframes=3 / b_pyramid=0 / b_adapt=1 / b_bias=0 / direct=1 / wpredb=1 / keyint=250 / keyint_min=25 / scenecut=40 / rc_lookahead=40 / rc=2pass / mbtree=1 / bitrate=11758 / ratetol=1.0 / qcomp=0.60 / qpmin=10 / qpmax=51 / qpstep=4 / cplxblur=20.0 / qblur=0.5 / ip_ratio=1.40 / aq=1:1.00 Language : English Default : Yes Forced : No Audio ID : 2 Format : DTS Format/Info : Digital Theater Systems Mode : 16 Format settings, Endianness : Big Codec ID : A_DTS Duration : 1h 57mn Bit rate mode : Constant Bit rate : 1 509 Kbps Channel(s) : 6 channels Channel positions : Front: L C R, Side: L R, LFE Sampling rate : 48.0 KHz Bit depth : 24 bits Compression mode : Lossy Stream size : 1.24 GiB (11%) Language : English Default : Yes Forced : No [/mediainfo]
G.I.Joe.Retaliation.2013.Extended.Action.Cut.1080p.BluRay.x264-VeDeTT.torrent Verified http://www.bt-chat.com/rss.php?group=230 Drarbg http://www.bt-chat.com/users.php?id=143535 http://www.bt-chat.com/details.php%3Fid%3D201218 2014-12-21T06:13:34-05:00 1999-11-30T00:00:00.2-05:00
Release Name........: G.I.Joe.Retaliation.2013.Extended.Action.Cut.1080p.BluRay.x264-VeDeTT ............... ............... Resolution .........: 1920x800 ............... ............... Video Bitrate ..... : 4259 kbps ............... ............... Audio Bitrate ......: English AC3 5.1 @ 640 kbps ............... ............... Frame Rate ........ : 23.976 fps ............... ............... Language ...........: ENGLISH ............... ............... Subtitles ..........: DA, DE, EN, ES, FR, IT, NL, NO, FI, SV, EN HI ............... ............... Duration............: 2h03m ............... ............... File size ..........: 7,64 GB ............... ............... URL.................: http://www.imdb.com/title/tt1583421 ............... ............... ............... ............................................................................................................................................ Screens: [url=http://imagecurl.com/viewer.php?file=66863581210595038066.png][img]http://imagecurl.com/images/66863581210595038066_thumb.png[/img][/url] [url=http://imagecurl.com/viewer.php?file=52961522627661774075.png][img]http://imagecurl.com/images/52961522627661774075_thumb.png[/img][/url] [url=http://imagecurl.com/viewer.php?file=81350419239831458353.png][img]http://imagecurl.com/images/81350419239831458353_thumb.png[/img][/url] [url=http://imagecurl.com/viewer.php?file=99531441689584034419.png][img]http://imagecurl.com/images/99531441689584034419_thumb.png[/img][/url] [url=http://imagecurl.com/viewer.php?file=98684530399858004142.png][img]http://imagecurl.com/images/98684530399858004142_thumb.png[/img][/url] [url=http://imagecurl.com/viewer.php?file=11730757366186553194.png][img]http://imagecurl.com/images/11730757366186553194_thumb.png[/img][/url] [mediainfo] Video ID : 1 Format : AVC Format/Info : Advanced Video Codec Format profile : High@L4.1 Format settings, CABAC : Yes Format settings, ReFrames : 5 frames Codec ID : V_MPEG4/ISO/AVC Duration : 2h 3mn Bit rate : 8 259 Kbps Width : 1 920 pixels Height : 800 pixels Display aspect ratio : 2.40:1 Frame rate mode : Constant Frame rate : 23.976 fps Color space : YUV Chroma subsampling : 4:2:0 Bit depth : 8 bits Scan type : Progressive Bits/(Pixel*Frame) : 0.224 Stream size : 6.94 GiB (91%) Writing library : x264 core 133 r2334 a3ac64b Encoding settings : cabac=1 / ref=5 / deblock=1:0:0 / analyse=0x3:0x133 / me=umh / subme=7 / psy=1 / psy_rd=1.00:0.00 / mixed_ref=1 / me_range=16 / chroma_me=1 / trellis=1 / 8x8dct=1 / cqm=0 / deadzone=21,11 / fast_pskip=0 / chroma_qp_offset=-2 / threads=6 / lookahead_threads=1 / sliced_threads=0 / nr=0 / decimate=1 / interlaced=0 / bluray_compat=0 / constrained_intra=0 / bframes=3 / b_pyramid=2 / b_adapt=2 / b_bias=0 / direct=3 / weightb=1 / open_gop=0 / weightp=2 / keyint=250 / keyint_min=23 / scenecut=40 / intra_refresh=0 / rc_lookahead=50 / rc=2pass / mbtree=1 / bitrate=8259 / ratetol=1.0 / qcomp=0.60 / qpmin=0 / qpmax=69 / qpstep=4 / cplxblur=20.0 / qblur=0.5 / ip_ratio=1.40 / aq=1:1.00 Language : English Default : Yes Forced : No Audio ID : 2 Format : AC-3 Format/Info : Audio Coding 3 Mode extension : CM (complete main) Format settings, Endianness : Big Codec ID : A_AC3 Duration : 2h 3mn Bit rate mode : Constant Bit rate : 640 Kbps Channel(s) : 6 channels Channel positions : Front: L C R, Side: L R, LFE Sampling rate : 48.0 KHz Bit depth : 16 bits Compression mode : Lossy Stream size : 563 MiB (7%) Language : English Default : Yes Forced : No Menu 00:00:00.000 : en:00:00:00.000 00:11:31.858 : en:00:11:31.858 00:18:28.607 : en:00:18:28.607 00:23:49.261 : en:00:23:49.261 00:31:58.125 : en:00:31:58.125 00:37:16.943 : en:00:37:16.943 00:46:13.646 : en:00:46:13.646 00:48:16.727 : en:00:48:16.727 00:54:59.630 : en:00:54:59.630 01:00:31.378 : en:01:00:31.378 01:08:14.924 : en:01:08:14.924 01:14:38.474 : en:01:14:38.474 01:22:21.770 : en:01:22:21.770 01:26:19.424 : en:01:26:19.424 01:32:55.487 : en:01:32:55.487 01:43:06.097 : en:01:43:06.097 01:53:55.579 : en:01:53:55.579 [/mediainfo]
UFC.Fight.Night.58.Preliminary.Fights.720p.HDTV.x264-KOENiG[rartv].torrent Verified http://www.bt-chat.com/rss.php?group=230 Drarbg http://www.bt-chat.com/users.php?id=143535 http://www.bt-chat.com/details.php%3Fid%3D201217 2014-12-21T05:30:10-05:00 1999-11-30T00:00:00.3-05:00
Screenshots: [URL=http://imagecurl.com/viewer.php?file=21647463799274549662.jpg][IMG]http://imagecurl.com/images/21647463799274549662_thumb.jpg[/IMG][/URL] Release Name....: UFC.Fight.Night.58.Preliminary.Fights.720p.HDTV.x264-KOENiG Release Date....: 2014.12.21 Source..........: H264 1920x1080 Source Bitrate..: Overall @ 12.8 Mbps Video...........: x264 Video Quality...: CRF @ 22 with preset slow Video Bitrate...: Average @ 3 473 Kbps Audio...........: AC3 @ 48000 Hz Audio Bitrate...: CBR @ 192 kbps Audio Language..: English Duration........: 1h 32mn Resolution......: 1280x720 Aspect Ratio....: 16:9 Frame Rate......: 25 Size............: 2.41 GiB Genre...........: Sport/MMA www.............: http://www.ufc.com/ Fight Card......: Yuta Sasaki vs Leandro Issa Darren Elkins vs Hacran Dias Tom Niinimaki vs Renato Carneiro Igor Pokrajac vs Marcos Rogerio de Lima [mediainfo] Video ID : 1 Format : AVC Format/Info : Advanced Video Codec Format profile : High@L4.1 Format settings, CABAC : Yes Format settings, ReFrames : 5 frames Codec ID : V_MPEG4/ISO/AVC Duration : 1h 32mn Bit rate : 3 473 Kbps Width : 1 280 pixels Height : 720 pixels Display aspect ratio : 16:9 Frame rate mode : Constant Frame rate : 25.000 fps Color space : YUV Chroma subsampling : 4:2:0 Bit depth : 8 bits Scan type : Progressive Bits/(Pixel*Frame) : 0.151 Stream size : 2.24 GiB (93%) Writing library : x264 core 142 r2491 24e4fed Encoding settings : cabac=1 / ref=5 / deblock=1:0:0 / analyse=0x3:0x113 / me=umh / subme=8 / psy=1 / psy_rd=1.00:0.00 / mixed_ref=1 / me_range=16 / chroma_me=1 / trellis=1 / 8x8dct=1 / cqm=0 / deadzone=21,11 / fast_pskip=1 / chroma_qp_offset=-2 / threads=18 / lookahead_threads=3 / sliced_threads=0 / nr=0 / decimate=1 / interlaced=0 / bluray_compat=0 / constrained_intra=0 / bframes=3 / b_pyramid=2 / b_adapt=2 / b_bias=0 / direct=3 / weightb=1 / open_gop=0 / weightp=2 / keyint=250 / keyint_min=25 / scenecut=40 / intra_refresh=0 / rc_lookahead=50 / rc=crf / mbtree=1 / crf=22.0 / qcomp=0.60 / qpmin=0 / qpmax=69 / qpstep=4 / ip_ratio=1.40 / aq=1:1.00 Default : Yes Forced : No Matrix coefficients : BT.709 Color range : Limited Audio ID : 2 Format : AC-3 Format/Info : Audio Coding 3 Mode extension : CM (complete main) Format settings, Endianness : Big Codec ID : A_AC3 Duration : 1h 32mn Bit rate mode : Constant Bit rate : 192 Kbps Channel(s) : 2 channels Channel positions : Front: L R Sampling rate : 48.0 KHz Bit depth : 16 bits Compression mode : Lossy Delay relative to video : 192ms Stream size : 127 MiB (5%) Language : English Default : Yes Forced : No [/mediainfo]
Knight.And.Day.2010.720p.BluRay.H264.AAC-RARBG.torrent Verified http://www.bt-chat.com/rss.php?group=230 Drarbg http://www.bt-chat.com/users.php?id=143535 http://www.bt-chat.com/details.php%3Fid%3D201216 2014-12-21T05:19:39-05:00 1999-11-30T00:00:00.4-05:00
[URL]http://www.imdb.com/title/tt1013743/[/URL] [URL=http://imagecurl.com/viewer.php?file=89644272301404368765.png][IMG]http://imagecurl.com/images/89644272301404368765_thumb.png[/IMG][/URL] [URL=http://imagecurl.com/viewer.php?file=10647775329953009703.png][IMG]http://imagecurl.com/images/10647775329953009703_thumb.png[/IMG][/URL] [URL=http://imagecurl.com/viewer.php?file=68827585739026873808.png][IMG]http://imagecurl.com/images/68827585739026873808_thumb.png[/IMG][/URL] [URL=http://imagecurl.com/viewer.php?file=14730089174739198981.png][IMG]http://imagecurl.com/images/14730089174739198981_thumb.png[/IMG][/URL] [URL=http://imagecurl.com/viewer.php?file=42585868747876186652.png][IMG]http://imagecurl.com/images/42585868747876186652_thumb.png[/IMG][/URL] [mediainfo] Video ID : 1 Format : AVC Format/Info : Advanced Video Codec Format profile : High@L4.1 Format settings, CABAC : Yes Format settings, ReFrames : 4 frames Codec ID : avc1 Codec ID/Info : Advanced Video Coding Duration : 1h 49mn Bit rate : 1 500 Kbps Width : 1 280 pixels Height : 534 pixels Display aspect ratio : 2.40:1 Frame rate mode : Constant Frame rate : 23.976 fps Color space : YUV Chroma subsampling : 4:2:0 Bit depth : 8 bits Scan type : Progressive Bits/(Pixel*Frame) : 0.092 Stream size : 1.15 GiB (87%) Writing library : x264 core 142 r2491M 24e4fed Encoding settings : cabac=1 / ref=4 / deblock=1:-1:-1 / analyse=0x3:0x113 / me=umh / subme=9 / psy=1 / psy_rd=1.00:0.15 / mixed_ref=1 / me_range=24 / chroma_me=1 / trellis=2 / 8x8dct=1 / cqm=0 / deadzone=21,11 / fast_pskip=1 / chroma_qp_offset=-3 / threads=32 / lookahead_threads=4 / sliced_threads=0 / nr=0 / decimate=1 / interlaced=0 / bluray_compat=0 / constrained_intra=0 / bframes=3 / b_pyramid=2 / b_adapt=1 / b_bias=0 / direct=1 / weightb=1 / open_gop=0 / weightp=2 / keyint=250 / keyint_min=25 / scenecut=40 / intra_refresh=0 / rc_lookahead=50 / rc=2pass / mbtree=1 / bitrate=1500 / ratetol=1.0 / qcomp=0.60 / qpmin=0 / qpmax=69 / qpstep=4 / cplxblur=20.0 / qblur=0.5 / vbv_maxrate=31250 / vbv_bufsize=31250 / nal_hrd=none / filler=0 / ip_ratio=1.40 / aq=3:1.00 Encoded date : UTC 1904-01-01 00:00:00 Tagged date : UTC 1904-01-01 00:00:00 Audio ID : 2 Format : AAC Format/Info : Advanced Audio Codec Format profile : LC Codec ID : 40 Duration : 1h 49mn Bit rate mode : Constant Bit rate : 224 Kbps Channel(s) : 2 channels Channel(s)_Original : 6 channels Channel positions : Front: L C R, Side: L R, LFE Sampling rate : 48.0 KHz Compression mode : Lossy Stream size : 175 MiB (13%) Language : English Encoded date : UTC 1904-01-01 00:00:00 Tagged date : UTC 1904-01-01 00:00:00 [/mediainfo]
Diamonds.Are.Forever.1971.720p.BluRay.H264.AAC-RARBG.torrent Verified http://www.bt-chat.com/rss.php?group=230 Drarbg http://www.bt-chat.com/users.php?id=143535 http://www.bt-chat.com/details.php%3Fid%3D201215 2014-12-21T05:19:02-05:00 1999-11-30T00:00:00.5-05:00
[URL]http://www.imdb.com/title/tt0066995/[/URL] [URL=http://imagecurl.com/viewer.php?file=73208398550095736457.png][IMG]http://imagecurl.com/images/73208398550095736457_thumb.png[/IMG][/URL] [URL=http://imagecurl.com/viewer.php?file=71887113547522736658.png][IMG]http://imagecurl.com/images/71887113547522736658_thumb.png[/IMG][/URL] [URL=http://imagecurl.com/viewer.php?file=95387530938389736800.png][IMG]http://imagecurl.com/images/95387530938389736800_thumb.png[/IMG][/URL] [URL=http://imagecurl.com/viewer.php?file=64988734158975031925.png][IMG]http://imagecurl.com/images/64988734158975031925_thumb.png[/IMG][/URL] [URL=http://imagecurl.com/viewer.php?file=10847267461382419609.png][IMG]http://imagecurl.com/images/10847267461382419609_thumb.png[/IMG][/URL] [mediainfo] Video ID : 1 Format : AVC Format/Info : Advanced Video Codec Format profile : High@L4.1 Format settings, CABAC : Yes Format settings, ReFrames : 4 frames Codec ID : avc1 Codec ID/Info : Advanced Video Coding Duration : 2h 0mn Bit rate : 1 500 Kbps Width : 1 280 pixels Height : 544 pixels Display aspect ratio : 2.35:1 Frame rate mode : Constant Frame rate : 23.976 fps Color space : YUV Chroma subsampling : 4:2:0 Bit depth : 8 bits Scan type : Progressive Bits/(Pixel*Frame) : 0.090 Stream size : 1.26 GiB (87%) Writing library : x264 core 142 r2491M 24e4fed Encoding settings : cabac=1 / ref=4 / deblock=1:-1:-1 / analyse=0x3:0x113 / me=umh / subme=9 / psy=1 / psy_rd=1.00:0.15 / mixed_ref=1 / me_range=24 / chroma_me=1 / trellis=2 / 8x8dct=1 / cqm=0 / deadzone=21,11 / fast_pskip=1 / chroma_qp_offset=-3 / threads=32 / lookahead_threads=4 / sliced_threads=0 / nr=0 / decimate=1 / interlaced=0 / bluray_compat=0 / constrained_intra=0 / bframes=3 / b_pyramid=2 / b_adapt=1 / b_bias=0 / direct=1 / weightb=1 / open_gop=0 / weightp=2 / keyint=250 / keyint_min=25 / scenecut=40 / intra_refresh=0 / rc_lookahead=50 / rc=2pass / mbtree=1 / bitrate=1500 / ratetol=1.0 / qcomp=0.60 / qpmin=0 / qpmax=69 / qpstep=4 / cplxblur=20.0 / qblur=0.5 / vbv_maxrate=31250 / vbv_bufsize=31250 / nal_hrd=none / filler=0 / ip_ratio=1.40 / aq=3:1.00 Encoded date : UTC 1904-01-01 00:00:00 Tagged date : UTC 1904-01-01 00:00:00 Audio ID : 2 Format : AAC Format/Info : Advanced Audio Codec Format profile : LC Codec ID : 40 Duration : 2h 0mn Bit rate mode : Constant Bit rate : 224 Kbps Channel(s) : 2 channels Channel(s)_Original : 6 channels Channel positions : Front: L C R, Side: L R, LFE Sampling rate : 48.0 KHz Compression mode : Lossy Stream size : 192 MiB (13%) Language : English Encoded date : UTC 1904-01-01 00:00:00 Tagged date : UTC 1904-01-01 00:00:00 Menu #1 ID : 3 Codec ID : text Duration : 2h 0mn Language : English Encoded date : UTC 1904-01-01 00:00:00 Tagged date : UTC 1904-01-01 00:00:00 Bit rate mode : CBR 00:00:00.000 : 00:00:00.000 00:04:56.214 : 00:04:56.171 00:07:45.800 : 00:07:45.757 00:10:31.507 : 00:10:31.464 00:14:43.342 : 00:14:43.299 00:17:15.869 : 00:17:15.826 00:21:31.500 : 00:21:31.457 00:25:37.579 : 00:25:37.536 00:29:11.501 : 00:29:11.458 00:34:10.925 : 00:34:10.882 00:36:51.627 : 00:36:51.584 00:39:36.208 : 00:39:36.165 00:43:57.636 : 00:43:57.593 00:49:59.706 : 00:49:59.663 00:51:45.937 : 00:51:45.894 00:56:34.100 : 00:56:34.057 00:59:17.055 : 00:59:17.012 01:03:33.686 : 01:03:33.643 01:08:01.329 : 01:08:01.286 01:12:56.206 : 01:12:56.163 01:18:35.003 : 01:18:34.960 01:20:29.618 : 01:20:29.575 01:23:11.780 : 01:23:11.737 01:30:22.001 : 01:30:21.958 01:32:01.684 : 01:32:01.641 01:33:06.541 : 01:33:06.498 01:36:06.053 : 01:36:06.010 01:37:59.416 : 01:37:59.373 01:41:39.928 : 01:41:39.885 01:47:22.854 : 01:47:22.811 01:54:14.015 : 01:54:13.972 01:58:34.400 : 01:58:34.357 Menu #2 00:00:00.043 : 00:00:00.000 00:04:56.214 : 00:04:56.171 00:07:45.800 : 00:07:45.757 00:10:31.507 : 00:10:31.464 00:14:43.342 : 00:14:43.299 00:17:15.869 : 00:17:15.826 00:21:31.500 : 00:21:31.457 00:25:37.579 : 00:25:37.536 00:29:11.501 : 00:29:11.458 00:34:10.925 : 00:34:10.882 00:36:51.627 : 00:36:51.584 00:39:36.208 : 00:39:36.165 00:43:57.636 : 00:43:57.593 00:49:59.706 : 00:49:59.663 00:51:45.937 : 00:51:45.894 00:56:34.100 : 00:56:34.057 00:59:17.055 : 00:59:17.012 01:03:33.686 : 01:03:33.643 01:08:01.329 : 01:08:01.286 01:12:56.206 : 01:12:56.163 01:18:35.003 : 01:18:34.960 01:20:29.618 : 01:20:29.575 01:23:11.780 : 01:23:11.737 01:30:22.001 : 01:30:21.958 01:32:01.684 : 01:32:01.641 01:33:06.541 : 01:33:06.498 01:36:06.053 : 01:36:06.010 01:37:59.416 : 01:37:59.373 01:41:39.928 : 01:41:39.885 01:47:22.854 : 01:47:22.811 01:54:14.015 : 01:54:13.972 01:58:34.400 : 01:58:34.357 [/mediainfo]
Casino.Royale.1966.720p.BluRay.H264.AAC-RARBG.torrent Verified http://www.bt-chat.com/rss.php?group=230 Drarbg http://www.bt-chat.com/users.php?id=143535 http://www.bt-chat.com/details.php%3Fid%3D201214 2014-12-21T05:18:45-05:00 1999-11-30T00:00:00.6-05:00
[URL]http://www.imdb.com/title/tt0061452/[/URL] [URL=http://imagecurl.com/viewer.php?file=16783431772370415694.png][IMG]http://imagecurl.com/images/16783431772370415694_thumb.png[/IMG][/URL] [URL=http://imagecurl.com/viewer.php?file=67452934195264268588.png][IMG]http://imagecurl.com/images/67452934195264268588_thumb.png[/IMG][/URL] [URL=http://imagecurl.com/viewer.php?file=01288782376174795970.png][IMG]http://imagecurl.com/images/01288782376174795970_thumb.png[/IMG][/URL] [URL=http://imagecurl.com/viewer.php?file=85278535756263077682.png][IMG]http://imagecurl.com/images/85278535756263077682_thumb.png[/IMG][/URL] [URL=http://imagecurl.com/viewer.php?file=74685906622065863273.png][IMG]http://imagecurl.com/images/74685906622065863273_thumb.png[/IMG][/URL] [mediainfo] Video ID : 1 Format : AVC Format/Info : Advanced Video Codec Format profile : High@L4.1 Format settings, CABAC : Yes Format settings, ReFrames : 4 frames Codec ID : avc1 Codec ID/Info : Advanced Video Coding Duration : 2h 11mn Bit rate : 1 500 Kbps Width : 1 280 pixels Height : 550 pixels Display aspect ratio : 2.35:1 Frame rate mode : Constant Frame rate : 23.976 fps Color space : YUV Chroma subsampling : 4:2:0 Bit depth : 8 bits Scan type : Progressive Bits/(Pixel*Frame) : 0.089 Stream size : 1.37 GiB (87%) Writing library : x264 core 142 r2491M 24e4fed Encoding settings : cabac=1 / ref=4 / deblock=1:-1:-1 / analyse=0x3:0x113 / me=umh / subme=9 / psy=1 / psy_rd=1.00:0.15 / mixed_ref=1 / me_range=24 / chroma_me=1 / trellis=2 / 8x8dct=1 / cqm=0 / deadzone=21,11 / fast_pskip=1 / chroma_qp_offset=-3 / threads=32 / lookahead_threads=4 / sliced_threads=0 / nr=0 / decimate=1 / interlaced=0 / bluray_compat=0 / constrained_intra=0 / bframes=3 / b_pyramid=2 / b_adapt=1 / b_bias=0 / direct=1 / weightb=1 / open_gop=0 / weightp=2 / keyint=250 / keyint_min=25 / scenecut=40 / intra_refresh=0 / rc_lookahead=50 / rc=2pass / mbtree=1 / bitrate=1500 / ratetol=1.0 / qcomp=0.60 / qpmin=0 / qpmax=69 / qpstep=4 / cplxblur=20.0 / qblur=0.5 / vbv_maxrate=31250 / vbv_bufsize=31250 / nal_hrd=none / filler=0 / ip_ratio=1.40 / aq=3:1.00 Encoded date : UTC 1904-01-01 00:00:00 Tagged date : UTC 1904-01-01 00:00:00 Audio ID : 2 Format : AAC Format/Info : Advanced Audio Codec Format profile : LC Codec ID : 40 Duration : 2h 11mn Bit rate mode : Constant Bit rate : 224 Kbps Channel(s) : 2 channels Channel(s)_Original : 6 channels Channel positions : Front: L C R, Side: L R, LFE Sampling rate : 48.0 KHz Compression mode : Lossy Stream size : 210 MiB (13%) Language : English Encoded date : UTC 1904-01-01 00:00:00 Tagged date : UTC 1904-01-01 00:00:00 [/mediainfo]
BBC.Rik.Mayall.Lord.of.Misrule.720p.HDTV.x264.AAC.MVGroup.org.mp4.torrent MVGroup http://www.bt-chat.com/rss.php?group=232 artistharry http://www.bt-chat.com/users.php?id=74598 http://www.bt-chat.com/details.php%3Fid%3D201213 2014-12-21T05:08:47-05:00 1999-11-30T00:00:00.7-05:00
 
Knight.And.Day.2010.BRRip.XviD.MP3-RARBG.torrent Verified http://www.bt-chat.com/rss.php?group=230 Drarbg http://www.bt-chat.com/users.php?id=143535 http://www.bt-chat.com/details.php%3Fid%3D201212 2014-12-21T03:13:12-05:00 1999-11-30T00:00:00.8-05:00
[URL]http://www.imdb.com/title/tt1013743/[/URL] [URL=http://imagecurl.com/viewer.php?file=99722961941199494462.png][IMG]http://imagecurl.com/images/99722961941199494462_thumb.png[/IMG][/URL] [URL=http://imagecurl.com/viewer.php?file=16365970122756532887.png][IMG]http://imagecurl.com/images/16365970122756532887_thumb.png[/IMG][/URL] [URL=http://imagecurl.com/viewer.php?file=65478514181287327013.png][IMG]http://imagecurl.com/images/65478514181287327013_thumb.png[/IMG][/URL] [URL=http://imagecurl.com/viewer.php?file=01808865560123783004.png][IMG]http://imagecurl.com/images/01808865560123783004_thumb.png[/IMG][/URL] [URL=http://imagecurl.com/viewer.php?file=45842047845408749621.png][IMG]http://imagecurl.com/images/45842047845408749621_thumb.png[/IMG][/URL] [mediainfo] Video ID : 0 Format : MPEG-4 Visual Format profile : Simple@L5 Format settings, BVOP : No Format settings, QPel : No Format settings, GMC : No warppoints Format settings, Matrix : Default (H.263) Codec ID : XVID Codec ID/Hint : XviD Duration : 1h 49mn Bit rate : 1 598 Kbps Width : 720 pixels Height : 300 pixels Display aspect ratio : 2.40:1 Frame rate : 23.976 fps Color space : YUV Chroma subsampling : 4:2:0 Bit depth : 8 bits Scan type : Progressive Compression mode : Lossy Bits/(Pixel*Frame) : 0.309 Stream size : 1.22 GiB (89%) Title : RARBG.COM - Knight.And.Day.2010.BRRip.XviD.MP3-RARBG Writing library : Lavc56.14.100 Audio ID : 1 Format : MPEG Audio Format version : Version 1 Format profile : Layer 3 Mode : Joint stereo Mode extension : MS Stereo Codec ID : 55 Codec ID/Hint : MP3 Duration : 1h 49mn Bit rate mode : Constant Bit rate : 192 Kbps Channel(s) : 2 channels Sampling rate : 48.0 KHz Compression mode : Lossy Stream size : 150 MiB (11%) Alignment : Aligned on interleaves Interleave, duration : 24 ms (0.58 video frame) Interleave, preload duration : 24 ms Title : RARBG.COM - Knight.And.Day.2010.BRRip.XviD.MP3-RARBG Writing library : LAME [/mediainfo]
A.View.to.a.Kill.1985.1080p.BluRay.H264.AAC-RARBG.torrent Verified http://www.bt-chat.com/rss.php?group=230 Drarbg http://www.bt-chat.com/users.php?id=143535 http://www.bt-chat.com/details.php%3Fid%3D201211 2014-12-21T03:12:38-05:00 1999-11-30T00:00:00.9-05:00
[URL]http://www.imdb.com/title/tt0090264/[/URL] [URL=http://imagecurl.com/viewer.php?file=08308397899710107859.png][IMG]http://imagecurl.com/images/08308397899710107859_thumb.png[/IMG][/URL] [URL=http://imagecurl.com/viewer.php?file=03010119146763844138.png][IMG]http://imagecurl.com/images/03010119146763844138_thumb.png[/IMG][/URL] [URL=http://imagecurl.com/viewer.php?file=67840489446322505751.png][IMG]http://imagecurl.com/images/67840489446322505751_thumb.png[/IMG][/URL] [URL=http://imagecurl.com/viewer.php?file=28507853856900106953.png][IMG]http://imagecurl.com/images/28507853856900106953_thumb.png[/IMG][/URL] [URL=http://imagecurl.com/viewer.php?file=96214010231317507265.png][IMG]http://imagecurl.com/images/96214010231317507265_thumb.png[/IMG][/URL] [mediainfo] Video ID : 1 Format : AVC Format/Info : Advanced Video Codec Format profile : High@L4.1 Format settings, CABAC : Yes Format settings, ReFrames : 4 frames Codec ID : avc1 Codec ID/Info : Advanced Video Coding Duration : 2h 11mn Bit rate : 2 500 Kbps Width : 1 920 pixels Height : 816 pixels Display aspect ratio : 2.35:1 Frame rate mode : Constant Frame rate : 23.976 fps Color space : YUV Chroma subsampling : 4:2:0 Bit depth : 8 bits Scan type : Progressive Bits/(Pixel*Frame) : 0.067 Stream size : 2.29 GiB (92%) Writing library : x264 core 142 r2491M 24e4fed Encoding settings : cabac=1 / ref=4 / deblock=1:-1:-1 / analyse=0x3:0x113 / me=umh / subme=9 / psy=1 / psy_rd=1.00:0.15 / mixed_ref=1 / me_range=24 / chroma_me=1 / trellis=2 / 8x8dct=1 / cqm=0 / deadzone=21,11 / fast_pskip=1 / chroma_qp_offset=-3 / threads=32 / lookahead_threads=4 / sliced_threads=0 / nr=0 / decimate=1 / interlaced=0 / bluray_compat=0 / constrained_intra=0 / bframes=3 / b_pyramid=2 / b_adapt=1 / b_bias=0 / direct=1 / weightb=1 / open_gop=0 / weightp=2 / keyint=250 / keyint_min=25 / scenecut=40 / intra_refresh=0 / rc_lookahead=50 / rc=2pass / mbtree=1 / bitrate=2500 / ratetol=1.0 / qcomp=0.60 / qpmin=0 / qpmax=69 / qpstep=4 / cplxblur=20.0 / qblur=0.5 / vbv_maxrate=31250 / vbv_bufsize=31250 / nal_hrd=none / filler=0 / ip_ratio=1.40 / aq=3:1.00 Encoded date : UTC 1904-01-01 00:00:00 Tagged date : UTC 1904-01-01 00:00:00 Audio ID : 2 Format : AAC Format/Info : Advanced Audio Codec Format profile : LC Codec ID : 40 Duration : 2h 11mn Bit rate mode : Constant Bit rate : 224 Kbps Channel(s) : 2 channels Channel(s)_Original : 6 channels Channel positions : Front: L C R, Side: L R, LFE Sampling rate : 48.0 KHz Compression mode : Lossy Stream size : 210 MiB (8%) Language : English Encoded date : UTC 1904-01-01 00:00:00 Tagged date : UTC 1904-01-01 00:00:00 Menu #1 ID : 3 Codec ID : text Duration : 2h 11mn Language : English Encoded date : UTC 1904-01-01 00:00:00 Tagged date : UTC 1904-01-01 00:00:00 Bit rate mode : CBR 00:00:00.000 : 00:00:00.000 00:06:15.710 : 00:06:15.667 00:09:40.039 : 00:09:39.996 00:12:45.683 : 00:12:45.640 00:15:23.924 : 00:15:23.881 00:18:01.832 : 00:18:01.789 00:22:05.617 : 00:22:05.574 00:25:28.987 : 00:25:28.944 00:29:10.667 : 00:29:10.624 00:35:42.975 : 00:35:42.932 00:39:13.728 : 00:39:13.685 00:40:42.358 : 00:40:42.315 00:41:50.926 : 00:41:50.883 00:44:01.891 : 00:44:01.848 00:47:18.754 : 00:47:18.711 00:52:23.100 : 00:52:23.057 00:54:15.670 : 00:54:15.627 00:55:52.726 : 00:55:52.683 00:58:40.393 : 00:58:40.350 01:01:58.424 : 01:01:58.381 01:06:47.046 : 01:06:47.003 01:12:54.830 : 01:12:54.787 01:17:13.797 : 01:17:13.754 01:21:08.323 : 01:21:08.280 01:24:10.255 : 01:24:10.212 01:33:21.097 : 01:33:21.054 01:39:17.161 : 01:39:17.118 01:42:06.288 : 01:42:06.245 01:46:55.786 : 01:46:55.743 01:53:22.547 : 01:53:22.504 01:59:27.703 : 01:59:27.660 02:08:39.838 : 02:08:39.795 Menu #2 00:00:00.043 : 00:00:00.000 00:06:15.710 : 00:06:15.667 00:09:40.039 : 00:09:39.996 00:12:45.683 : 00:12:45.640 00:15:23.924 : 00:15:23.881 00:18:01.832 : 00:18:01.789 00:22:05.617 : 00:22:05.574 00:25:28.987 : 00:25:28.944 00:29:10.667 : 00:29:10.624 00:35:42.975 : 00:35:42.932 00:39:13.728 : 00:39:13.685 00:40:42.358 : 00:40:42.315 00:41:50.926 : 00:41:50.883 00:44:01.891 : 00:44:01.848 00:47:18.754 : 00:47:18.711 00:52:23.100 : 00:52:23.057 00:54:15.670 : 00:54:15.627 00:55:52.726 : 00:55:52.683 00:58:40.393 : 00:58:40.350 01:01:58.424 : 01:01:58.381 01:06:47.046 : 01:06:47.003 01:12:54.830 : 01:12:54.787 01:17:13.797 : 01:17:13.754 01:21:08.323 : 01:21:08.280 01:24:10.255 : 01:24:10.212 01:33:21.097 : 01:33:21.054 01:39:17.161 : 01:39:17.118 01:42:06.288 : 01:42:06.245 01:46:55.786 : 01:46:55.743 01:53:22.547 : 01:53:22.504 01:59:27.703 : 01:59:27.660 02:08:39.838 : 02:08:39.795 [/mediainfo]
Indiana.Jones.and.the.Temple.of.Doom.1984.1080p.BluRay.X264-AMIABLE.torrent Verified http://www.bt-chat.com/rss.php?group=230 Drarbg http://www.bt-chat.com/users.php?id=143535 http://www.bt-chat.com/details.php%3Fid%3D201210 2014-12-21T03:12:01-05:00 1999-11-30T00:00:00.10-05:00
__ .---. __ / ` .-.7,--. / `. .-\\. -, , \ \--.- -; | ) / ,` / \ ,_) / \-. / ( ( | / .\ ) \ AMIABLE proudly presents: \. `--,/ .---\ ,-.| `--. / \-, -\ .\ Indiana.Jones.and.the.Temple.of.Doom.1984.1080p.BluRay.X264-AMIABLE .==,=; `-,.;--\ / ,\ _;--;| Date .....: 10th September 2012 /_...=\ you are my Runtime ..: 01:58:28 || .==,=. Size .....: 8960mb ||/ \.\ Video ....: 1920x816 (X264 @ 23.976fps) ,||`\=...__\ Audio ....: DTS 1509k || Source ...: Retail Blu-Ray sweetest downfall.. Lang .....: English ||, Subs .....: English / French / Spanish / Portuguese || IMDB .....: http://www.imdb.com/title/tt0087469/ ,|| Rating ...: 7.6/10 169,699 votes || Screens ..: Opening Week - $2,110,782 (USA) (12 August 1984) (946 Screens) I loved you first Genre ....: Action | Adventure Screens: [url=http://imagecurl.com/viewer.php?file=05904136670080022194.png][img]http://imagecurl.com/images/05904136670080022194_thumb.png[/img][/url] [url=http://imagecurl.com/viewer.php?file=07658973557861067358.png][img]http://imagecurl.com/images/07658973557861067358_thumb.png[/img][/url] [url=http://imagecurl.com/viewer.php?file=48607364251539248460.png][img]http://imagecurl.com/images/48607364251539248460_thumb.png[/img][/url] [url=http://imagecurl.com/viewer.php?file=84332990435413581591.png][img]http://imagecurl.com/images/84332990435413581591_thumb.png[/img][/url] [url=http://imagecurl.com/viewer.php?file=29906838678600128290.png][img]http://imagecurl.com/images/29906838678600128290_thumb.png[/img][/url] [url=http://imagecurl.com/viewer.php?file=51308420029702171392.png][img]http://imagecurl.com/images/51308420029702171392_thumb.png[/img][/url] [mediainfo] Video ID : 1 Format : AVC Format/Info : Advanced Video Codec Format profile : High@L4.1 Format settings, CABAC : Yes Format settings, ReFrames : 5 frames Codec ID : V_MPEG4/ISO/AVC Duration : 1h 58mn Bit rate : 9 059 Kbps Width : 1 920 pixels Height : 816 pixels Display aspect ratio : 2.35:1 Frame rate mode : Constant Frame rate : 23.976 fps Color space : YUV Chroma subsampling : 4:2:0 Bit depth : 8 bits Scan type : Progressive Bits/(Pixel*Frame) : 0.241 Stream size : 7.32 GiB (84%) Writing library : x264 core 125 r2208 d9d2288 Encoding settings : cabac=1 / ref=5 / deblock=1:0:0 / analyse=0x3:0x113 / me=umh / subme=8 / psy=1 / psy_rd=1.00:0.00 / mixed_ref=1 / me_range=16 / chroma_me=1 / trellis=1 / 8x8dct=1 / cqm=0 / deadzone=21,11 / fast_pskip=1 / chroma_qp_offset=-2 / threads=12 / lookahead_threads=2 / sliced_threads=0 / nr=0 / decimate=1 / interlaced=0 / bluray_compat=0 / constrained_intra=0 / bframes=3 / b_pyramid=2 / b_adapt=2 / b_bias=0 / direct=3 / weightb=1 / open_gop=0 / weightp=2 / keyint=240 / keyint_min=24 / scenecut=40 / intra_refresh=0 / rc_lookahead=50 / rc=2pass / mbtree=1 / bitrate=9059 / ratetol=1.0 / qcomp=0.60 / qpmin=0 / qpmax=69 / qpstep=4 / cplxblur=20.0 / qblur=0.5 / ip_ratio=1.40 / aq=1:1.00 Language : English Default : Yes Forced : No Audio ID : 2 Format : DTS Format/Info : Digital Theater Systems Mode : 16 Format settings, Endianness : Big Codec ID : A_DTS Duration : 1h 58mn Bit rate mode : Constant Bit rate : 1 509 Kbps Channel(s) : 6 channels Channel positions : Front: L C R, Side: L R, LFE Sampling rate : 48.0 KHz Bit depth : 24 bits Compression mode : Lossy Stream size : 1.25 GiB (14%) Language : English Default : Yes Forced : No Text ID : 3 Format : UTF-8 Codec ID : S_TEXT/UTF8 Codec ID/Info : UTF-8 Plain Text Language : English Default : No Forced : No Menu 00:00:00.000 : en:00:00:00.000 00:02:54.049 : en:00:02:54.049 00:08:07.278 : en:00:08:07.278 00:10:52.735 : en:00:10:52.735 00:12:51.479 : en:00:12:51.479 00:16:00.543 : en:00:16:00.543 00:19:50.189 : en:00:19:50.189 00:26:28.670 : en:00:26:28.670 00:28:42.971 : en:00:28:42.971 00:31:49.032 : en:00:31:49.032 00:35:21.161 : en:00:35:21.161 00:38:57.001 : en:00:38:57.001 00:41:20.520 : en:00:41:20.520 00:46:24.323 : en:00:46:24.323 00:50:42.957 : en:00:50:42.957 00:52:06.582 : en:00:52:06.582 00:56:08.365 : en:00:56:08.365 00:59:57.219 : en:00:59:57.219 01:05:57.078 : en:01:05:57.078 01:09:52.021 : en:01:09:52.021 01:13:08.551 : en:01:13:08.551 01:17:08.290 : en:01:17:08.290 01:24:01.954 : en:01:24:01.954 01:27:33.331 : en:01:27:33.331 01:29:21.106 : en:01:29:21.106 01:35:03.448 : en:01:35:03.448 01:39:23.875 : en:01:39:23.875 01:41:51.272 : en:01:41:51.272 01:43:38.796 : en:01:43:38.796 01:49:57.966 : en:01:49:57.966 01:53:10.909 : en:01:53:10.909 [/mediainfo]
Indiana.Jones.and.the.Raiders.of.the.Lost.Ark.1981.1080p.BluRay.X264-AMIABLE.torrent Verified http://www.bt-chat.com/rss.php?group=230 Drarbg http://www.bt-chat.com/users.php?id=143535 http://www.bt-chat.com/details.php%3Fid%3D201209 2014-12-21T03:11:26-05:00 1999-11-30T00:00:00.11-05:00
__ .---. __ / ` .-.7,--. / `. .-\\. -, , \ \--.- -; | ) / ,` / \ ,_) / \-. / ( ( | / .\ ) \ AMIABLE proudly presents: \. `--,/ .---\ ,-.| `--. / \-, -\ .\ Indiana.Jones.and.the.Raiders.of.the.Lost.Ark.1981.1080p.BluRay.X264-AMIABLE .==,=; `-,.;--\ / ,\ _;--;| Date .....: 10th September 2012 /_...=\ you are my Runtime ..: 01:55:19 || .==,=. Size .....: 8960mb ||/ \.\ Video ....: 1920x816 (X264 @ 23.976fps) ,||`\=...__\ Audio ....: DTS 1509k || Source ...: Retail Blu-Ray sweetest downfall.. Lang .....: English ||, Subs .....: English / French / Spanish / Portuguese || IMDB .....: http://www.imdb.com/title/tt0082971/ ,|| Rating ...: 8.7/10 357,549 votes || Screens ..: Opening Week - $8,305,823 (USA) (14 June 1981) (1,078 Screens) I loved you first Genre ....: Action | Adventure Screens: [url=http://imagecurl.com/viewer.php?file=26334500373535799463.png][img]http://imagecurl.com/images/26334500373535799463_thumb.png[/img][/url] [url=http://imagecurl.com/viewer.php?file=31251554530187747629.png][img]http://imagecurl.com/images/31251554530187747629_thumb.png[/img][/url] [url=http://imagecurl.com/viewer.php?file=20070314717105027233.png][img]http://imagecurl.com/images/20070314717105027233_thumb.png[/img][/url] [url=http://imagecurl.com/viewer.php?file=26042126836524167909.png][img]http://imagecurl.com/images/26042126836524167909_thumb.png[/img][/url] [url=http://imagecurl.com/viewer.php?file=54409265269362168291.png][img]http://imagecurl.com/images/54409265269362168291_thumb.png[/img][/url] [url=http://imagecurl.com/viewer.php?file=09221606298114359721.png][img]http://imagecurl.com/images/09221606298114359721_thumb.png[/img][/url] [mediainfo] Video ID : 1 Format : AVC Format/Info : Advanced Video Codec Format profile : High@L4.1 Format settings, CABAC : Yes Format settings, ReFrames : 5 frames Codec ID : V_MPEG4/ISO/AVC Duration : 1h 55mn Bit rate : 9 347 Kbps Width : 1 920 pixels Height : 816 pixels Display aspect ratio : 2.35:1 Frame rate mode : Constant Frame rate : 23.976 fps Color space : YUV Chroma subsampling : 4:2:0 Bit depth : 8 bits Scan type : Progressive Bits/(Pixel*Frame) : 0.249 Stream size : 7.36 GiB (84%) Writing library : x264 core 125 r2208 d9d2288 Encoding settings : cabac=1 / ref=5 / deblock=1:0:0 / analyse=0x3:0x113 / me=umh / subme=8 / psy=1 / psy_rd=1.00:0.00 / mixed_ref=1 / me_range=16 / chroma_me=1 / trellis=1 / 8x8dct=1 / cqm=0 / deadzone=21,11 / fast_pskip=1 / chroma_qp_offset=-2 / threads=12 / lookahead_threads=2 / sliced_threads=0 / nr=0 / decimate=1 / interlaced=0 / bluray_compat=0 / constrained_intra=0 / bframes=3 / b_pyramid=2 / b_adapt=2 / b_bias=0 / direct=3 / weightb=1 / open_gop=0 / weightp=2 / keyint=240 / keyint_min=24 / scenecut=40 / intra_refresh=0 / rc_lookahead=50 / rc=2pass / mbtree=1 / bitrate=9347 / ratetol=1.0 / qcomp=0.60 / qpmin=0 / qpmax=69 / qpstep=4 / cplxblur=20.0 / qblur=0.5 / ip_ratio=1.40 / aq=1:1.00 Language : English Default : Yes Forced : No Audio ID : 2 Format : DTS Format/Info : Digital Theater Systems Mode : 16 Format settings, Endianness : Big Codec ID : A_DTS Duration : 1h 55mn Bit rate mode : Constant Bit rate : 1 509 Kbps Channel(s) : 6 channels Channel positions : Front: L C R, Side: L R, LFE Sampling rate : 48.0 KHz Bit depth : 24 bits Compression mode : Lossy Stream size : 1.22 GiB (14%) Language : English Default : Yes Forced : No Text ID : 3 Format : UTF-8 Codec ID : S_TEXT/UTF8 Codec ID/Info : UTF-8 Plain Text Language : English Default : No Forced : No Menu 00:00:00.000 : en:00:00:00.000 00:03:16.530 : en:00:03:16.530 00:05:44.636 : en:00:05:44.636 00:09:51.132 : en:00:09:51.132 00:12:49.352 : en:00:12:49.352 00:15:23.631 : en:00:15:23.631 00:20:27.435 : en:00:20:27.435 00:22:58.419 : en:00:22:58.419 00:28:51.355 : en:00:28:51.355 00:33:42.395 : en:00:33:42.395 00:36:23.390 : en:00:36:23.390 00:40:04.819 : en:00:40:04.819 00:42:16.159 : en:00:42:16.159 00:46:41.507 : en:00:46:41.507 00:49:32.928 : en:00:49:32.928 00:51:00.933 : en:00:51:00.933 00:55:11.141 : en:00:55:11.141 00:58:33.218 : en:00:58:33.218 01:03:05.740 : en:01:03:05.740 01:08:26.144 : en:01:08:26.144 01:10:25.346 : en:01:10:25.346 01:15:33.154 : en:01:15:33.154 01:22:24.356 : en:01:22:24.356 01:25:43.764 : en:01:25:43.764 01:29:57.517 : en:01:29:57.517 01:34:30.665 : en:01:34:30.665 01:38:06.172 : en:01:38:06.172 01:41:06.060 : en:01:41:06.060 01:44:06.824 : en:01:44:06.824 01:47:01.415 : en:01:47:01.415 01:49:05.998 : en:01:49:05.998 [/mediainfo]
Indiana.Jones.and.the.Last.Crusade.1989.1080p.BluRay.X264-AMIABLE.torrent Verified http://www.bt-chat.com/rss.php?group=230 Drarbg http://www.bt-chat.com/users.php?id=143535 http://www.bt-chat.com/details.php%3Fid%3D201208 2014-12-21T03:10:49-05:00 1999-11-30T00:00:00.12-05:00
/ ( ( | / .\ ) \ AMIABLE proudly presents: \. `--,/ .---\ ,-.| `--. / \-, -\ .\ Indiana.Jones.and.the.Last.Crusade.1989.1080p.BluRay.X264-AMIABLE .==,=; `-,.;--\ / ,\ _;--;| Date .....: 10th September 2012 /_...=\ you are my Runtime ..: 02:06:53 || .==,=. Size .....: 10080mb ||/ \.\ Video ....: 1920x816 (X264 @ 23.976fps) ,||`\=...__\ Audio ....: DTS 1509k || Source ...: Retail Blu-Ray sweetest downfall.. Lang .....: English ||, Subs .....: English / French / Spanish / Portuguese || IMDB .....: http://www.imdb.com/title/tt0097576/ ,|| Rating ...: 8.3/10 265,599 votes || Screens ..: Opening Week - $29,400,000 (USA) (2,327 Screens) I loved you first Genre ....: Action | Adventure Screens: [url=http://imagecurl.com/viewer.php?file=36912217922183324218.png][img]http://imagecurl.com/images/36912217922183324218_thumb.png[/img][/url] [url=http://imagecurl.com/viewer.php?file=31687959120085231283.png][img]http://imagecurl.com/images/31687959120085231283_thumb.png[/img][/url] [url=http://imagecurl.com/viewer.php?file=30281481292813378243.png][img]http://imagecurl.com/images/30281481292813378243_thumb.png[/img][/url] [url=http://imagecurl.com/viewer.php?file=04109596854539003123.png][img]http://imagecurl.com/images/04109596854539003123_thumb.png[/img][/url] [url=http://imagecurl.com/viewer.php?file=11827175243893816656.png][img]http://imagecurl.com/images/11827175243893816656_thumb.png[/img][/url] [url=http://imagecurl.com/viewer.php?file=65416942667245622623.png][img]http://imagecurl.com/images/65416942667245622623_thumb.png[/img][/url] [mediainfo] Video ID : 1 Format : AVC Format/Info : Advanced Video Codec Format profile : High@L4.1 Format settings, CABAC : Yes Format settings, ReFrames : 5 frames Codec ID : V_MPEG4/ISO/AVC Duration : 2h 6mn Bit rate : 9 592 Kbps Width : 1 920 pixels Height : 816 pixels Display aspect ratio : 2.35:1 Frame rate mode : Constant Frame rate : 23.976 fps Color space : YUV Chroma subsampling : 4:2:0 Bit depth : 8 bits Scan type : Progressive Bits/(Pixel*Frame) : 0.255 Stream size : 8.31 GiB (84%) Writing library : x264 core 125 r2208 d9d2288 Encoding settings : cabac=1 / ref=5 / deblock=1:0:0 / analyse=0x3:0x113 / me=umh / subme=8 / psy=1 / psy_rd=1.00:0.00 / mixed_ref=1 / me_range=16 / chroma_me=1 / trellis=1 / 8x8dct=1 / cqm=0 / deadzone=21,11 / fast_pskip=1 / chroma_qp_offset=-2 / threads=12 / lookahead_threads=2 / sliced_threads=0 / nr=0 / decimate=1 / interlaced=0 / bluray_compat=0 / constrained_intra=0 / bframes=3 / b_pyramid=2 / b_adapt=2 / b_bias=0 / direct=3 / weightb=1 / open_gop=0 / weightp=2 / keyint=240 / keyint_min=24 / scenecut=40 / intra_refresh=0 / rc_lookahead=50 / rc=2pass / mbtree=1 / bitrate=9592 / ratetol=1.0 / qcomp=0.60 / qpmin=0 / qpmax=69 / qpstep=4 / cplxblur=20.0 / qblur=0.5 / ip_ratio=1.40 / aq=1:1.00 Language : English Default : Yes Forced : No Audio ID : 2 Format : DTS Format/Info : Digital Theater Systems Mode : 16 Format settings, Endianness : Big Codec ID : A_DTS Duration : 2h 6mn Bit rate mode : Constant Bit rate : 1 509 Kbps Channel(s) : 6 channels Channel positions : Front: L C R, Side: L R, LFE Sampling rate : 48.0 KHz Bit depth : 24 bits Compression mode : Lossy Stream size : 1.34 GiB (14%) Language : English Default : Yes Forced : No Text ID : 3 Format : UTF-8 Codec ID : S_TEXT/UTF8 Codec ID/Info : UTF-8 Plain Text Language : English Default : No Forced : No Menu 00:00:00.000 : en:00:00:00.000 00:04:41.907 : en:00:04:41.907 00:08:11.032 : en:00:08:11.032 00:11:49.042 : en:00:11:49.042 00:14:14.437 : en:00:14:14.437 00:17:19.413 : en:00:17:19.413 00:22:14.583 : en:00:22:14.583 00:24:51.448 : en:00:24:51.448 00:26:52.152 : en:00:26:52.152 00:30:15.564 : en:00:30:15.564 00:36:31.564 : en:00:36:31.564 00:41:10.426 : en:00:41:10.426 00:44:41.387 : en:00:44:41.387 00:47:42.401 : en:00:47:42.401 00:50:23.729 : en:00:50:23.729 00:54:47.534 : en:00:54:47.534 00:56:31.138 : en:00:56:31.138 01:00:16.112 : en:01:00:16.112 01:03:08.743 : en:01:03:08.743 01:05:31.386 : en:01:05:31.386 01:07:47.313 : en:01:07:47.313 01:10:43.531 : en:01:10:43.531 01:13:36.329 : en:01:13:36.329 01:16:11.358 : en:01:16:11.358 01:18:57.107 : en:01:18:57.107 01:21:20.042 : en:01:21:20.042 01:23:28.420 : en:01:23:28.420 01:25:16.737 : en:01:25:16.737 01:26:58.046 : en:01:26:58.046 01:31:21.935 : en:01:31:21.935 01:36:57.061 : en:01:36:57.061 01:38:53.427 : en:01:38:53.427 01:41:32.545 : en:01:41:32.545 01:49:18.260 : en:01:49:18.260 01:56:05.667 : en:01:56:05.667 02:00:05.907 : en:02:00:05.907 [/mediainfo]
Indiana.Jones.And.The.Kingdom.Of.The.Crystal.Skull.2008.1080p.BluRay.x264-SiNNERS.torrent Verified http://www.bt-chat.com/rss.php?group=230 Drarbg http://www.bt-chat.com/users.php?id=143535 http://www.bt-chat.com/details.php%3Fid%3D201207 2014-12-21T03:10:10-05:00 1999-11-30T00:00:00.13-05:00
Indiana.Jones.And.The.Kingdom.Of.The.Crystal.Skull.2008.1080p.BluRay.x264-SiNNERS ЮЫІ яя ІЫЭя ЮЫІ Release......: 2008.10.06 яяя ІЫЭя ЮЫІ Size.........: 7.94 gigs ІЫЭя ЮЫІ яя ІЫЭ ЮЫІ IMDB rating..: 6.9/10 (88,039 votes) ІЫЭ ЮЫІ ІЫЭ ЮЫІ http://www.imdb.com/title/tt0367882/ ІЫЭя ЮЫІ я ІЫЭ ЮЫІ Source.......: Blu Ray ІЫЭ ЮЫІ Ь ЬЫЫЫ ° Video specs..: x264 @ 8642 kbps ІЫЭ ЮЫІ ЫЫІЫ Audio specs..: English 5.1 ІЫЭя ЮЫІ ЫЫЫ±±Ð«Ð«Ð« - --> ac3/640bps ІЫЭя ЮЫІ ЯЫІІІЫЫІ ІЫЭя ЮЫІ Ы±±Ð« Subtitles....: English Screens: [url=http://imagecurl.com/viewer.php?file=89734434951704057066.png][img]http://imagecurl.com/images/89734434951704057066_thumb.png[/img][/url] [url=http://imagecurl.com/viewer.php?file=42662667330491165998.png][img]http://imagecurl.com/images/42662667330491165998_thumb.png[/img][/url] [url=http://imagecurl.com/viewer.php?file=31810458124328863441.png][img]http://imagecurl.com/images/31810458124328863441_thumb.png[/img][/url] [url=http://imagecurl.com/viewer.php?file=06599498634945382374.png][img]http://imagecurl.com/images/06599498634945382374_thumb.png[/img][/url] [url=http://imagecurl.com/viewer.php?file=86801585090794765082.png][img]http://imagecurl.com/images/86801585090794765082_thumb.png[/img][/url] [url=http://imagecurl.com/viewer.php?file=28053577075133980277.png][img]http://imagecurl.com/images/28053577075133980277_thumb.png[/img][/url] [mediainfo] Video ID : 1 Format : AVC Format/Info : Advanced Video Codec Format profile : High@L4.0 Format settings, CABAC : Yes Format settings, ReFrames : 4 frames Codec ID : V_MPEG4/ISO/AVC Duration : 2h 2mn Bit rate : 8 642 Kbps Width : 1 920 pixels Height : 800 pixels Display aspect ratio : 2.40:1 Frame rate mode : Constant Frame rate : 23.976 fps Color space : YUV Chroma subsampling : 4:2:0 Bit depth : 8 bits Scan type : Progressive Bits/(Pixel*Frame) : 0.235 Stream size : 7.24 GiB (91%) Writing library : x264 core 65 r999 cc51047 Encoding settings : cabac=1 / ref=4 / deblock=1:0:0 / analyse=0x3:0x113 / me=umh / subme=7 / psy_rd=1.0:0.0 / mixed_ref=1 / me_range=16 / chroma_me=1 / trellis=1 / 8x8dct=1 / cqm=0 / deadzone=21,11 / chroma_qp_offset=-2 / threads=6 / nr=0 / decimate=1 / mbaff=0 / bframes=3 / b_pyramid=1 / b_adapt=1 / b_bias=0 / direct=1 / wpredb=1 / keyint=250 / keyint_min=25 / scenecut=40(pre) / rc=2pass / bitrate=8642 / ratetol=1.0 / qcomp=0.60 / qpmin=10 / qpmax=51 / qpstep=4 / cplxblur=20.0 / qblur=0.5 / ip_ratio=1.40 / pb_ratio=1.30 / aq=1:1.00 Language : English Default : Yes Forced : No Audio ID : 2 Format : AC-3 Format/Info : Audio Coding 3 Mode extension : CM (complete main) Format settings, Endianness : Big Codec ID : A_AC3 Duration : 2h 2mn Bit rate mode : Constant Bit rate : 640 Kbps Channel(s) : 6 channels Channel positions : Front: L C R, Side: L R, LFE Sampling rate : 48.0 KHz Bit depth : 16 bits Compression mode : Lossy Stream size : 561 MiB (7%) Language : English Default : Yes Forced : No Text ID : 3 Format : UTF-8 Codec ID : S_TEXT/UTF8 Codec ID/Info : UTF-8 Plain Text Language : English Default : Yes Forced : No [/mediainfo]
Goodbye.to.All.That.2014.HDRip.XviD.MP3-RARBG.torrent Verified http://www.bt-chat.com/rss.php?group=230 Drarbg http://www.bt-chat.com/users.php?id=143535 http://www.bt-chat.com/details.php%3Fid%3D201206 2014-12-21T02:55:32-05:00 1999-11-30T00:00:00.14-05:00
[b]Goodbye.to.All.That.2014.HDRip.XviD.MP3-RARBG[/b] Screens: [url=http://imagecurl.com/viewer.php?file=08876362221397382441.png][img]http://imagecurl.com/images/08876362221397382441_thumb.png[/img][/url] [url=http://imagecurl.com/viewer.php?file=21724179366899148357.png][img]http://imagecurl.com/images/21724179366899148357_thumb.png[/img][/url] [url=http://imagecurl.com/viewer.php?file=63788924141085941924.png][img]http://imagecurl.com/images/63788924141085941924_thumb.png[/img][/url] [url=http://imagecurl.com/viewer.php?file=13587912092641758437.png][img]http://imagecurl.com/images/13587912092641758437_thumb.png[/img][/url] [url=http://imagecurl.com/viewer.php?file=22325906580524237121.png][img]http://imagecurl.com/images/22325906580524237121_thumb.png[/img][/url] [url=http://imagecurl.com/viewer.php?file=54814123070831999088.png][img]http://imagecurl.com/images/54814123070831999088_thumb.png[/img][/url] [b]Info:[/b] [mediainfo] Format : AVI Format/Info : Audio Video Interleave File size : 1.18 GiB Duration : 1h 26mn Overall bit rate : 1 948 Kbps Movie name : RARBG.COM - Goodbye.to.All.That.2014.HDRip.XviD.MP3-RARBG Writing library : VirtualDub build 35491/release Comment : RARBG.COM - Goodbye.to.All.That.2014.HDRip.XviD.MP3-RARBG Video ID : 0 Format : MPEG-4 Visual Format profile : Simple@L5 Format settings, BVOP : No Format settings, QPel : No Format settings, GMC : No warppoints Format settings, Matrix : Default (H.263) Codec ID : XVID Codec ID/Hint : XviD Duration : 1h 26mn Bit rate : 1 743 Kbps Width : 720 pixels Height : 384 pixels Display aspect ratio : 1.85:1 Frame rate : 23.976 fps Color space : YUV Chroma subsampling : 4:2:0 Bit depth : 8 bits Scan type : Progressive Compression mode : Lossy Bits/(Pixel*Frame) : 0.263 Stream size : 1.05 GiB (89%) Writing library : Lavc56.13.100 Audio ID : 1 Format : MPEG Audio Format version : Version 1 Format profile : Layer 3 Mode : Joint stereo Codec ID : 55 Codec ID/Hint : MP3 Duration : 1h 26mn Bit rate mode : Constant Bit rate : 192 Kbps Channel(s) : 2 channels Sampling rate : 48.0 KHz Compression mode : Lossy Stream size : 119 MiB (10%) Alignment : Aligned on interleaves Interleave, duration : 24 ms (0.58 video frame) Interleave, preload duration : 504 ms [/mediainfo] [b]Notes: Greetz to all! :)[/b]
Goodbye.to.All.That.2014.HDRip.XviD.AC3-RARBG.torrent Verified http://www.bt-chat.com/rss.php?group=230 Drarbg http://www.bt-chat.com/users.php?id=143535 http://www.bt-chat.com/details.php%3Fid%3D201205 2014-12-21T02:54:36-05:00 1999-11-30T00:00:00.15-05:00
[b]Goodbye.to.All.That.2014.HDRip.XviD.AC3-RARBG[/b] Screens: [url=http://imagecurl.com/viewer.php?file=08876362221397382441.png][img]http://imagecurl.com/images/08876362221397382441_thumb.png[/img][/url] [url=http://imagecurl.com/viewer.php?file=21724179366899148357.png][img]http://imagecurl.com/images/21724179366899148357_thumb.png[/img][/url] [url=http://imagecurl.com/viewer.php?file=63788924141085941924.png][img]http://imagecurl.com/images/63788924141085941924_thumb.png[/img][/url] [url=http://imagecurl.com/viewer.php?file=13587912092641758437.png][img]http://imagecurl.com/images/13587912092641758437_thumb.png[/img][/url] [url=http://imagecurl.com/viewer.php?file=22325906580524237121.png][img]http://imagecurl.com/images/22325906580524237121_thumb.png[/img][/url] [url=http://imagecurl.com/viewer.php?file=54814123070831999088.png][img]http://imagecurl.com/images/54814123070831999088_thumb.png[/img][/url] [b]Info:[/b] [mediainfo] Format : AVI Format/Info : Audio Video Interleave File size : 1.29 GiB Duration : 1h 26mn Overall bit rate : 2 136 Kbps Movie name : RARBG.COM - Goodbye.to.All.That.2014.HDRip.XviD.AC3-RARBG Writing library : VirtualDub build 35491/release Comment : RARBG.COM - Goodbye.to.All.That.2014.HDRip.XviD.AC3-RARBG Video ID : 0 Format : MPEG-4 Visual Format profile : Simple@L5 Format settings, BVOP : No Format settings, QPel : No Format settings, GMC : No warppoints Format settings, Matrix : Default (H.263) Codec ID : XVID Codec ID/Hint : XviD Duration : 1h 26mn Bit rate : 1 743 Kbps Width : 720 pixels Height : 384 pixels Display aspect ratio : 1.85:1 Frame rate : 23.976 fps Color space : YUV Chroma subsampling : 4:2:0 Bit depth : 8 bits Scan type : Progressive Compression mode : Lossy Bits/(Pixel*Frame) : 0.263 Stream size : 1.05 GiB (82%) Writing library : Lavc56.13.100 Audio ID : 1 Format : AC-3 Format/Info : Audio Coding 3 Mode extension : CM (complete main) Format settings, Endianness : Big Codec ID : 2000 Duration : 1h 26mn Bit rate mode : Constant Bit rate : 384 Kbps Channel(s) : 6 channels Channel positions : Front: L C R, Side: L R, LFE Sampling rate : 48.0 KHz Bit depth : 16 bits Compression mode : Lossy Stream size : 238 MiB (18%) Alignment : Aligned on interleaves Interleave, duration : 42 ms (1.00 video frame) Interleave, preload duration : 512 ms [/mediainfo] [b]Notes: Greetz to all! :)[/b]
Casino.Royale.1966.BRRip.XviD.MP3-RARBG.torrent Verified http://www.bt-chat.com/rss.php?group=230 Drarbg http://www.bt-chat.com/users.php?id=143535 http://www.bt-chat.com/details.php%3Fid%3D201204 2014-12-21T02:46:40-05:00 1999-11-30T00:00:00.16-05:00
[URL]http://www.imdb.com/title/tt0061452/[/URL] [URL=http://imagecurl.com/viewer.php?file=67941145254941644820.png][IMG]http://imagecurl.com/images/67941145254941644820_thumb.png[/IMG][/URL] [URL=http://imagecurl.com/viewer.php?file=59821571992683824046.png][IMG]http://imagecurl.com/images/59821571992683824046_thumb.png[/IMG][/URL] [URL=http://imagecurl.com/viewer.php?file=87999805477163847552.png][IMG]http://imagecurl.com/images/87999805477163847552_thumb.png[/IMG][/URL] [URL=http://imagecurl.com/viewer.php?file=92173336958510588588.png][IMG]http://imagecurl.com/images/92173336958510588588_thumb.png[/IMG][/URL] [URL=http://imagecurl.com/viewer.php?file=99650526295135583363.png][IMG]http://imagecurl.com/images/99650526295135583363_thumb.png[/IMG][/URL] [mediainfo] Video ID : 0 Format : MPEG-4 Visual Format profile : Simple@L5 Format settings, BVOP : No Format settings, QPel : No Format settings, GMC : No warppoints Format settings, Matrix : Default (H.263) Codec ID : XVID Codec ID/Hint : XviD Duration : 2h 11mn Bit rate : 1 600 Kbps Width : 720 pixels Height : 310 pixels Display aspect ratio : 2.35:1 Original display aspect ratio : 2.35:1 Frame rate : 23.976 fps Color space : YUV Chroma subsampling : 4:2:0 Bit depth : 8 bits Scan type : Progressive Compression mode : Lossy Bits/(Pixel*Frame) : 0.299 Stream size : 1.47 GiB (89%) Title : RARBG.COM - Casino.Royale.1966.BRRip.XviD.MP3-RARBG Writing library : Lavc56.14.100 Audio ID : 1 Format : MPEG Audio Format version : Version 1 Format profile : Layer 3 Mode : Joint stereo Codec ID : 55 Codec ID/Hint : MP3 Duration : 2h 11mn Bit rate mode : Constant Bit rate : 192 Kbps Channel(s) : 2 channels Sampling rate : 48.0 KHz Compression mode : Lossy Stream size : 180 MiB (11%) Alignment : Aligned on interleaves Interleave, duration : 24 ms (0.58 video frame) Interleave, preload duration : 24 ms Title : RARBG.COM - Casino.Royale.1966.BRRip.XviD.MP3-RARBG Writing library : LAME3.99.5UU@ [/mediainfo]
Menace.II.Society.1993.DC.iNTERNAL.1080p.BluRay.H264.AAC-RARBG.torrent Verified http://www.bt-chat.com/rss.php?group=230 Drarbg http://www.bt-chat.com/users.php?id=143535 http://www.bt-chat.com/details.php%3Fid%3D201203 2014-12-21T02:45:55-05:00 1999-11-30T00:00:00.17-05:00
[URL]http://www.imdb.com/title/tt0107554/[/URL] [URL=http://imagecurl.com/viewer.php?file=25579337113597773544.png][IMG]http://imagecurl.com/images/25579337113597773544_thumb.png[/IMG][/URL] [URL=http://imagecurl.com/viewer.php?file=94956677579210826839.png][IMG]http://imagecurl.com/images/94956677579210826839_thumb.png[/IMG][/URL] [URL=http://imagecurl.com/viewer.php?file=56974624266722232743.png][IMG]http://imagecurl.com/images/56974624266722232743_thumb.png[/IMG][/URL] [URL=http://imagecurl.com/viewer.php?file=92152675010758916113.png][IMG]http://imagecurl.com/images/92152675010758916113_thumb.png[/IMG][/URL] [URL=http://imagecurl.com/viewer.php?file=33906909090527003851.png][IMG]http://imagecurl.com/images/33906909090527003851_thumb.png[/IMG][/URL] [mediainfo] Video ID : 1 Format : AVC Format/Info : Advanced Video Codec Format profile : High@L4.1 Format settings, CABAC : Yes Format settings, ReFrames : 4 frames Codec ID : avc1 Codec ID/Info : Advanced Video Coding Duration : 1h 37mn Bit rate : 2 500 Kbps Width : 1 920 pixels Height : 1 080 pixels Display aspect ratio : 16:9 Frame rate mode : Constant Frame rate : 23.976 fps Color space : YUV Chroma subsampling : 4:2:0 Bit depth : 8 bits Scan type : Progressive Bits/(Pixel*Frame) : 0.050 Stream size : 1.70 GiB (92%) Writing library : x264 core 142 r2491M 24e4fed Encoding settings : cabac=1 / ref=4 / deblock=1:-1:-1 / analyse=0x3:0x113 / me=umh / subme=9 / psy=1 / psy_rd=1.00:0.15 / mixed_ref=1 / me_range=24 / chroma_me=1 / trellis=2 / 8x8dct=1 / cqm=0 / deadzone=21,11 / fast_pskip=1 / chroma_qp_offset=-3 / threads=32 / lookahead_threads=4 / sliced_threads=0 / nr=0 / decimate=1 / interlaced=0 / bluray_compat=0 / constrained_intra=0 / bframes=3 / b_pyramid=2 / b_adapt=1 / b_bias=0 / direct=1 / weightb=1 / open_gop=0 / weightp=2 / keyint=250 / keyint_min=25 / scenecut=40 / intra_refresh=0 / rc_lookahead=50 / rc=2pass / mbtree=1 / bitrate=2500 / ratetol=1.0 / qcomp=0.60 / qpmin=0 / qpmax=69 / qpstep=4 / cplxblur=20.0 / qblur=0.5 / vbv_maxrate=31250 / vbv_bufsize=31250 / nal_hrd=none / filler=0 / ip_ratio=1.40 / aq=3:1.00 Encoded date : UTC 1904-01-01 00:00:00 Tagged date : UTC 1904-01-01 00:00:00 Audio ID : 2 Format : AAC Format/Info : Advanced Audio Codec Format profile : LC Codec ID : 40 Duration : 1h 37mn Duration_LastFrame : 32ms Bit rate mode : Constant Bit rate : 224 Kbps Channel(s) : 2 channels Channel(s)_Original : 6 channels Channel positions : Front: L C R, Side: L R, LFE Sampling rate : 48.0 KHz Compression mode : Lossy Stream size : 156 MiB (8%) Language : English Encoded date : UTC 1904-01-01 00:00:00 Tagged date : UTC 1904-01-01 00:00:00 [/mediainfo]
Menace.II.Society.1993.DC.iNTERNAL.720p.BluRay.H264.AAC-RARBG.torrent Verified http://www.bt-chat.com/rss.php?group=230 Drarbg http://www.bt-chat.com/users.php?id=143535 http://www.bt-chat.com/details.php%3Fid%3D201202 2014-12-21T02:45:17-05:00 1999-11-30T00:00:00.18-05:00
[URL]http://www.imdb.com/title/tt0107554/[/URL] [URL=http://imagecurl.com/viewer.php?file=33614657567047008672.png][IMG]http://imagecurl.com/images/33614657567047008672_thumb.png[/IMG][/URL] [URL=http://imagecurl.com/viewer.php?file=47916752821506740999.png][IMG]http://imagecurl.com/images/47916752821506740999_thumb.png[/IMG][/URL] [URL=http://imagecurl.com/viewer.php?file=31030145542539841631.png][IMG]http://imagecurl.com/images/31030145542539841631_thumb.png[/IMG][/URL] [URL=http://imagecurl.com/viewer.php?file=45308363922203495761.png][IMG]http://imagecurl.com/images/45308363922203495761_thumb.png[/IMG][/URL] [URL=http://imagecurl.com/viewer.php?file=93351439890315793751.png][IMG]http://imagecurl.com/images/93351439890315793751_thumb.png[/IMG][/URL] [mediainfo] Video ID : 1 Format : AVC Format/Info : Advanced Video Codec Format profile : High@L4.1 Format settings, CABAC : Yes Format settings, ReFrames : 4 frames Codec ID : avc1 Codec ID/Info : Advanced Video Coding Duration : 1h 37mn Bit rate : 1 500 Kbps Width : 1 280 pixels Height : 720 pixels Display aspect ratio : 16:9 Frame rate mode : Constant Frame rate : 23.976 fps Color space : YUV Chroma subsampling : 4:2:0 Bit depth : 8 bits Scan type : Progressive Bits/(Pixel*Frame) : 0.068 Stream size : 1.02 GiB (87%) Writing library : x264 core 142 r2491M 24e4fed Encoding settings : cabac=1 / ref=4 / deblock=1:-1:-1 / analyse=0x3:0x113 / me=umh / subme=9 / psy=1 / psy_rd=1.00:0.15 / mixed_ref=1 / me_range=24 / chroma_me=1 / trellis=2 / 8x8dct=1 / cqm=0 / deadzone=21,11 / fast_pskip=1 / chroma_qp_offset=-3 / threads=32 / lookahead_threads=4 / sliced_threads=0 / nr=0 / decimate=1 / interlaced=0 / bluray_compat=0 / constrained_intra=0 / bframes=3 / b_pyramid=2 / b_adapt=1 / b_bias=0 / direct=1 / weightb=1 / open_gop=0 / weightp=2 / keyint=250 / keyint_min=25 / scenecut=40 / intra_refresh=0 / rc_lookahead=50 / rc=2pass / mbtree=1 / bitrate=1500 / ratetol=1.0 / qcomp=0.60 / qpmin=0 / qpmax=69 / qpstep=4 / cplxblur=20.0 / qblur=0.5 / vbv_maxrate=31250 / vbv_bufsize=31250 / nal_hrd=none / filler=0 / ip_ratio=1.40 / aq=3:1.00 Encoded date : UTC 1904-01-01 00:00:00 Tagged date : UTC 1904-01-01 00:00:00 Audio ID : 2 Format : AAC Format/Info : Advanced Audio Codec Format profile : LC Codec ID : 40 Duration : 1h 37mn Duration_LastFrame : 32ms Bit rate mode : Constant Bit rate : 224 Kbps Channel(s) : 2 channels Channel(s)_Original : 6 channels Channel positions : Front: L C R, Side: L R, LFE Sampling rate : 48.0 KHz Compression mode : Lossy Stream size : 156 MiB (13%) Language : English Encoded date : UTC 1904-01-01 00:00:00 Tagged date : UTC 1904-01-01 00:00:00 [/mediainfo]
Blitz.2011.iNTERNAL.1080p.BluRay.H264.AAC-RARBG.torrent Verified http://www.bt-chat.com/rss.php?group=230 Drarbg http://www.bt-chat.com/users.php?id=143535 http://www.bt-chat.com/details.php%3Fid%3D201201 2014-12-21T02:44:39-05:00 1999-11-30T00:00:00.19-05:00
[URL]http://www.imdb.com/title/tt1297919/[/URL] [URL=http://imagecurl.com/viewer.php?file=38185618535850177217.png][IMG]http://imagecurl.com/images/38185618535850177217_thumb.png[/IMG][/URL] [URL=http://imagecurl.com/viewer.php?file=31705508208162238288.png][IMG]http://imagecurl.com/images/31705508208162238288_thumb.png[/IMG][/URL] [URL=http://imagecurl.com/viewer.php?file=48355682827147957845.png][IMG]http://imagecurl.com/images/48355682827147957845_thumb.png[/IMG][/URL] [URL=http://imagecurl.com/viewer.php?file=80629910831438539018.png][IMG]http://imagecurl.com/images/80629910831438539018_thumb.png[/IMG][/URL] [URL=http://imagecurl.com/viewer.php?file=02043798707330970048.png][IMG]http://imagecurl.com/images/02043798707330970048_thumb.png[/IMG][/URL] [mediainfo] Video ID : 1 Format : AVC Format/Info : Advanced Video Codec Format profile : High@L4.1 Format settings, CABAC : Yes Format settings, ReFrames : 4 frames Codec ID : avc1 Codec ID/Info : Advanced Video Coding Duration : 1h 37mn Bit rate : 2 500 Kbps Width : 1 920 pixels Height : 816 pixels Display aspect ratio : 2.35:1 Frame rate mode : Constant Frame rate : 24.000 fps Color space : YUV Chroma subsampling : 4:2:0 Bit depth : 8 bits Scan type : Progressive Bits/(Pixel*Frame) : 0.066 Stream size : 1.69 GiB (92%) Writing library : x264 core 142 r2491M 24e4fed Encoding settings : cabac=1 / ref=4 / deblock=1:-1:-1 / analyse=0x3:0x113 / me=umh / subme=9 / psy=1 / psy_rd=1.00:0.15 / mixed_ref=1 / me_range=24 / chroma_me=1 / trellis=2 / 8x8dct=1 / cqm=0 / deadzone=21,11 / fast_pskip=1 / chroma_qp_offset=-3 / threads=32 / lookahead_threads=4 / sliced_threads=0 / nr=0 / decimate=1 / interlaced=0 / bluray_compat=0 / constrained_intra=0 / bframes=3 / b_pyramid=2 / b_adapt=1 / b_bias=0 / direct=1 / weightb=1 / open_gop=0 / weightp=2 / keyint=250 / keyint_min=25 / scenecut=40 / intra_refresh=0 / rc_lookahead=50 / rc=2pass / mbtree=1 / bitrate=2500 / ratetol=1.0 / qcomp=0.60 / qpmin=0 / qpmax=69 / qpstep=4 / cplxblur=20.0 / qblur=0.5 / vbv_maxrate=31250 / vbv_bufsize=31250 / nal_hrd=none / filler=0 / ip_ratio=1.40 / aq=3:1.00 Encoded date : UTC 1904-01-01 00:00:00 Tagged date : UTC 1904-01-01 00:00:00 Audio ID : 2 Format : AAC Format/Info : Advanced Audio Codec Format profile : LC Codec ID : 40 Duration : 1h 37mn Duration_LastFrame : 32ms Bit rate mode : Constant Bit rate : 224 Kbps Channel(s) : 2 channels Channel(s)_Original : 6 channels Channel positions : Front: L C R, Side: L R, LFE Sampling rate : 48.0 KHz Compression mode : Lossy Stream size : 155 MiB (8%) Language : English Encoded date : UTC 1904-01-01 00:00:00 Tagged date : UTC 1904-01-01 00:00:00 [/mediainfo]
Blitz.2011.iNTERNAL.720p.BluRay.H264.AAC-RARBG.torrent Verified http://www.bt-chat.com/rss.php?group=230 Drarbg http://www.bt-chat.com/users.php?id=143535 http://www.bt-chat.com/details.php%3Fid%3D201200 2014-12-21T02:44:02-05:00 1999-11-30T00:00:00.20-05:00
[URL]http://www.imdb.com/title/tt1297919/[/URL] [URL=http://imagecurl.com/viewer.php?file=55131835035261031709.png][IMG]http://imagecurl.com/images/55131835035261031709_thumb.png[/IMG][/URL] [URL=http://imagecurl.com/viewer.php?file=58891434296261254818.png][IMG]http://imagecurl.com/images/58891434296261254818_thumb.png[/IMG][/URL] [URL=http://imagecurl.com/viewer.php?file=39720294062690240161.png][IMG]http://imagecurl.com/images/39720294062690240161_thumb.png[/IMG][/URL] [URL=http://imagecurl.com/viewer.php?file=21811991686089200810.png][IMG]http://imagecurl.com/images/21811991686089200810_thumb.png[/IMG][/URL] [URL=http://imagecurl.com/viewer.php?file=87034357488842016967.png][IMG]http://imagecurl.com/images/87034357488842016967_thumb.png[/IMG][/URL] [mediainfo] Video ID : 1 Format : AVC Format/Info : Advanced Video Codec Format profile : High@L4.1 Format settings, CABAC : Yes Format settings, ReFrames : 4 frames Codec ID : avc1 Codec ID/Info : Advanced Video Coding Duration : 1h 37mn Bit rate : 1 500 Kbps Width : 1 280 pixels Height : 544 pixels Display aspect ratio : 2.35:1 Frame rate mode : Constant Frame rate : 24.000 fps Color space : YUV Chroma subsampling : 4:2:0 Bit depth : 8 bits Scan type : Progressive Bits/(Pixel*Frame) : 0.090 Stream size : 1.02 GiB (87%) Writing library : x264 core 142 r2491M 24e4fed Encoding settings : cabac=1 / ref=4 / deblock=1:-1:-1 / analyse=0x3:0x113 / me=umh / subme=9 / psy=1 / psy_rd=1.00:0.15 / mixed_ref=1 / me_range=24 / chroma_me=1 / trellis=2 / 8x8dct=1 / cqm=0 / deadzone=21,11 / fast_pskip=1 / chroma_qp_offset=-3 / threads=32 / lookahead_threads=4 / sliced_threads=0 / nr=0 / decimate=1 / interlaced=0 / bluray_compat=0 / constrained_intra=0 / bframes=3 / b_pyramid=2 / b_adapt=1 / b_bias=0 / direct=1 / weightb=1 / open_gop=0 / weightp=2 / keyint=250 / keyint_min=25 / scenecut=40 / intra_refresh=0 / rc_lookahead=50 / rc=2pass / mbtree=1 / bitrate=1500 / ratetol=1.0 / qcomp=0.60 / qpmin=0 / qpmax=69 / qpstep=4 / cplxblur=20.0 / qblur=0.5 / vbv_maxrate=31250 / vbv_bufsize=31250 / nal_hrd=none / filler=0 / ip_ratio=1.40 / aq=3:1.00 Encoded date : UTC 1904-01-01 00:00:00 Tagged date : UTC 1904-01-01 00:00:00 Audio ID : 2 Format : AAC Format/Info : Advanced Audio Codec Format profile : LC Codec ID : 40 Duration : 1h 37mn Duration_LastFrame : 32ms Bit rate mode : Constant Bit rate : 224 Kbps Channel(s) : 2 channels Channel(s)_Original : 6 channels Channel positions : Front: L C R, Side: L R, LFE Sampling rate : 48.0 KHz Compression mode : Lossy Stream size : 155 MiB (13%) Language : English Encoded date : UTC 1904-01-01 00:00:00 Tagged date : UTC 1904-01-01 00:00:00 [/mediainfo]
Diamonds.Are.Forever.1971.BRRip.XviD.MP3-RARBG.torrent Verified http://www.bt-chat.com/rss.php?group=230 Drarbg http://www.bt-chat.com/users.php?id=143535 http://www.bt-chat.com/details.php%3Fid%3D201199 2014-12-21T02:43:19-05:00 1999-11-30T00:00:00.21-05:00
[URL]http://www.imdb.com/title/tt0066995/[/URL] [URL=http://imagecurl.com/viewer.php?file=69792779877736605967.png][IMG]http://imagecurl.com/images/69792779877736605967_thumb.png[/IMG][/URL] [URL=http://imagecurl.com/viewer.php?file=98845107730269319483.png][IMG]http://imagecurl.com/images/98845107730269319483_thumb.png[/IMG][/URL] [URL=http://imagecurl.com/viewer.php?file=32006193390714254568.png][IMG]http://imagecurl.com/images/32006193390714254568_thumb.png[/IMG][/URL] [URL=http://imagecurl.com/viewer.php?file=61941343429259931732.png][IMG]http://imagecurl.com/images/61941343429259931732_thumb.png[/IMG][/URL] [URL=http://imagecurl.com/viewer.php?file=36896575374884838150.png][IMG]http://imagecurl.com/images/36896575374884838150_thumb.png[/IMG][/URL] [mediainfo] Video ID : 0 Format : MPEG-4 Visual Format profile : Simple@L5 Format settings, BVOP : No Format settings, QPel : No Format settings, GMC : No warppoints Format settings, Matrix : Default (H.263) Codec ID : XVID Codec ID/Hint : XviD Duration : 2h 0mn Bit rate : 1 598 Kbps Width : 720 pixels Height : 306 pixels Display aspect ratio : 2.35:1 Frame rate : 23.976 fps Color space : YUV Chroma subsampling : 4:2:0 Bit depth : 8 bits Scan type : Progressive Compression mode : Lossy Bits/(Pixel*Frame) : 0.302 Stream size : 1.34 GiB (89%) Title : RARBG.COM - Diamonds.Are.Forever.1971.BRRip.XviD.MP3-RARBG Writing library : Lavc56.14.100 Audio ID : 1 Format : MPEG Audio Format version : Version 1 Format profile : Layer 3 Mode : Joint stereo Mode extension : MS Stereo Codec ID : 55 Codec ID/Hint : MP3 Duration : 2h 0mn Bit rate mode : Constant Bit rate : 192 Kbps Channel(s) : 2 channels Sampling rate : 48.0 KHz Compression mode : Lossy Stream size : 165 MiB (11%) Alignment : Aligned on interleaves Interleave, duration : 24 ms (0.58 video frame) Interleave, preload duration : 24 ms Title : RARBG.COM - Diamonds.Are.Forever.1971.BRRip.XviD.MP3-RARBG Writing library : LAME3.99.5 [/mediainfo]
A.View.to.a.Kill.1985.720p.BluRay.H264.AAC-RARBG.torrent Verified http://www.bt-chat.com/rss.php?group=230 Drarbg http://www.bt-chat.com/users.php?id=143535 http://www.bt-chat.com/details.php%3Fid%3D201198 2014-12-21T02:42:35-05:00 1999-11-30T00:00:00.22-05:00
[URL]http://www.imdb.com/title/tt0090264/[/URL] [URL=http://imagecurl.com/viewer.php?file=61613262335884566498.png][IMG]http://imagecurl.com/images/61613262335884566498_thumb.png[/IMG][/URL] [URL=http://imagecurl.com/viewer.php?file=88598280046449531922.png][IMG]http://imagecurl.com/images/88598280046449531922_thumb.png[/IMG][/URL] [URL=http://imagecurl.com/viewer.php?file=48477705560616354192.png][IMG]http://imagecurl.com/images/48477705560616354192_thumb.png[/IMG][/URL] [URL=http://imagecurl.com/viewer.php?file=24807807930423883696.png][IMG]http://imagecurl.com/images/24807807930423883696_thumb.png[/IMG][/URL] [URL=http://imagecurl.com/viewer.php?file=64743174411229931522.png][IMG]http://imagecurl.com/images/64743174411229931522_thumb.png[/IMG][/URL] [mediainfo] Video ID : 1 Format : AVC Format/Info : Advanced Video Codec Format profile : High@L4.1 Format settings, CABAC : Yes Format settings, ReFrames : 4 frames Codec ID : avc1 Codec ID/Info : Advanced Video Coding Duration : 2h 11mn Bit rate : 1 500 Kbps Width : 1 280 pixels Height : 544 pixels Display aspect ratio : 2.35:1 Frame rate mode : Constant Frame rate : 23.976 fps Color space : YUV Chroma subsampling : 4:2:0 Bit depth : 8 bits Scan type : Progressive Bits/(Pixel*Frame) : 0.090 Stream size : 1.38 GiB (87%) Writing library : x264 core 142 r2491M 24e4fed Encoding settings : cabac=1 / ref=4 / deblock=1:-1:-1 / analyse=0x3:0x113 / me=umh / subme=9 / psy=1 / psy_rd=1.00:0.15 / mixed_ref=1 / me_range=24 / chroma_me=1 / trellis=2 / 8x8dct=1 / cqm=0 / deadzone=21,11 / fast_pskip=1 / chroma_qp_offset=-3 / threads=32 / lookahead_threads=4 / sliced_threads=0 / nr=0 / decimate=1 / interlaced=0 / bluray_compat=0 / constrained_intra=0 / bframes=3 / b_pyramid=2 / b_adapt=1 / b_bias=0 / direct=1 / weightb=1 / open_gop=0 / weightp=2 / keyint=250 / keyint_min=25 / scenecut=40 / intra_refresh=0 / rc_lookahead=50 / rc=2pass / mbtree=1 / bitrate=1500 / ratetol=1.0 / qcomp=0.60 / qpmin=0 / qpmax=69 / qpstep=4 / cplxblur=20.0 / qblur=0.5 / vbv_maxrate=31250 / vbv_bufsize=31250 / nal_hrd=none / filler=0 / ip_ratio=1.40 / aq=3:1.00 Encoded date : UTC 1904-01-01 00:00:00 Tagged date : UTC 1904-01-01 00:00:00 Audio ID : 2 Format : AAC Format/Info : Advanced Audio Codec Format profile : LC Codec ID : 40 Duration : 2h 11mn Bit rate mode : Constant Bit rate : 224 Kbps Channel(s) : 2 channels Channel(s)_Original : 6 channels Channel positions : Front: L C R, Side: L R, LFE Sampling rate : 48.0 KHz Compression mode : Lossy Stream size : 210 MiB (13%) Language : English Encoded date : UTC 1904-01-01 00:00:00 Tagged date : UTC 1904-01-01 00:00:00 Menu #1 ID : 3 Codec ID : text Duration : 2h 11mn Language : English Encoded date : UTC 1904-01-01 00:00:00 Tagged date : UTC 1904-01-01 00:00:00 Bit rate mode : CBR 00:00:00.000 : 00:00:00.000 00:06:15.710 : 00:06:15.667 00:09:40.039 : 00:09:39.996 00:12:45.683 : 00:12:45.640 00:15:23.924 : 00:15:23.881 00:18:01.832 : 00:18:01.789 00:22:05.617 : 00:22:05.574 00:25:28.987 : 00:25:28.944 00:29:10.667 : 00:29:10.624 00:35:42.975 : 00:35:42.932 00:39:13.728 : 00:39:13.685 00:40:42.358 : 00:40:42.315 00:41:50.926 : 00:41:50.883 00:44:01.891 : 00:44:01.848 00:47:18.754 : 00:47:18.711 00:52:23.100 : 00:52:23.057 00:54:15.670 : 00:54:15.627 00:55:52.726 : 00:55:52.683 00:58:40.393 : 00:58:40.350 01:01:58.424 : 01:01:58.381 01:06:47.046 : 01:06:47.003 01:12:54.830 : 01:12:54.787 01:17:13.797 : 01:17:13.754 01:21:08.323 : 01:21:08.280 01:24:10.255 : 01:24:10.212 01:33:21.097 : 01:33:21.054 01:39:17.161 : 01:39:17.118 01:42:06.288 : 01:42:06.245 01:46:55.786 : 01:46:55.743 01:53:22.547 : 01:53:22.504 01:59:27.703 : 01:59:27.660 02:08:39.838 : 02:08:39.795 Menu #2 00:00:00.043 : 00:00:00.000 00:06:15.710 : 00:06:15.667 00:09:40.039 : 00:09:39.996 00:12:45.683 : 00:12:45.640 00:15:23.924 : 00:15:23.881 00:18:01.832 : 00:18:01.789 00:22:05.617 : 00:22:05.574 00:25:28.987 : 00:25:28.944 00:29:10.667 : 00:29:10.624 00:35:42.975 : 00:35:42.932 00:39:13.728 : 00:39:13.685 00:40:42.358 : 00:40:42.315 00:41:50.926 : 00:41:50.883 00:44:01.891 : 00:44:01.848 00:47:18.754 : 00:47:18.711 00:52:23.100 : 00:52:23.057 00:54:15.670 : 00:54:15.627 00:55:52.726 : 00:55:52.683 00:58:40.393 : 00:58:40.350 01:01:58.424 : 01:01:58.381 01:06:47.046 : 01:06:47.003 01:12:54.830 : 01:12:54.787 01:17:13.797 : 01:17:13.754 01:21:08.323 : 01:21:08.280 01:24:10.255 : 01:24:10.212 01:33:21.097 : 01:33:21.054 01:39:17.161 : 01:39:17.118 01:42:06.288 : 01:42:06.245 01:46:55.786 : 01:46:55.743 01:53:22.547 : 01:53:22.504 01:59:27.703 : 01:59:27.660 02:08:39.838 : 02:08:39.795 [/mediainfo]
A.View.to.a.Kill.1985.BRRip.XviD.MP3-RARBG.torrent Verified http://www.bt-chat.com/rss.php?group=230 Drarbg http://www.bt-chat.com/users.php?id=143535 http://www.bt-chat.com/details.php%3Fid%3D201197 2014-12-21T02:41:42-05:00 1999-11-30T00:00:00.23-05:00
[URL]http://www.imdb.com/title/tt0090264/[/URL] [URL=http://imagecurl.com/viewer.php?file=34593031069614084432.png][IMG]http://imagecurl.com/images/34593031069614084432_thumb.png[/IMG][/URL] [URL=http://imagecurl.com/viewer.php?file=41240294955900359829.png][IMG]http://imagecurl.com/images/41240294955900359829_thumb.png[/IMG][/URL] [URL=http://imagecurl.com/viewer.php?file=67276016884969394840.png][IMG]http://imagecurl.com/images/67276016884969394840_thumb.png[/IMG][/URL] [URL=http://imagecurl.com/viewer.php?file=24785486319751893832.png][IMG]http://imagecurl.com/images/24785486319751893832_thumb.png[/IMG][/URL] [URL=http://imagecurl.com/viewer.php?file=12147715664906256134.png][IMG]http://imagecurl.com/images/12147715664906256134_thumb.png[/IMG][/URL] [mediainfo] Video ID : 0 Format : MPEG-4 Visual Format profile : Simple@L5 Format settings, BVOP : No Format settings, QPel : No Format settings, GMC : No warppoints Format settings, Matrix : Default (H.263) Codec ID : XVID Codec ID/Hint : XviD Duration : 2h 11mn Bit rate : 1 598 Kbps Width : 720 pixels Height : 306 pixels Display aspect ratio : 2.35:1 Frame rate : 23.976 fps Color space : YUV Chroma subsampling : 4:2:0 Bit depth : 8 bits Scan type : Progressive Compression mode : Lossy Bits/(Pixel*Frame) : 0.302 Stream size : 1.47 GiB (89%) Title : RARBG.COM - A.View.to.a.Kill.1985.BRRip.XviD.MP3-RARBG Writing library : Lavc56.14.100 Audio ID : 1 Format : MPEG Audio Format version : Version 1 Format profile : Layer 3 Mode : Joint stereo Mode extension : MS Stereo Codec ID : 55 Codec ID/Hint : MP3 Duration : 2h 11mn Bit rate mode : Constant Bit rate : 192 Kbps Channel(s) : 2 channels Sampling rate : 48.0 KHz Compression mode : Lossy Stream size : 180 MiB (11%) Alignment : Aligned on interleaves Interleave, duration : 24 ms (0.58 video frame) Interleave, preload duration : 24 ms Title : RARBG.COM - A.View.to.a.Kill.1985.BRRip.XviD.MP3-RARBG Writing library : LAME3.99.5 [/mediainfo]
Knight.And.Day.2010.1080p.BluRay.x264-Japhson.torrent Verified http://www.bt-chat.com/rss.php?group=230 Drarbg http://www.bt-chat.com/users.php?id=143535 http://www.bt-chat.com/details.php%3Fid%3D201196 2014-12-21T02:23:12-05:00 1999-11-30T00:00:00.24-05:00
Screenshots: [URL=http://imagecurl.com/viewer.php?file=29148668775981840864.jpg][IMG]http://imagecurl.com/images/29148668775981840864_thumb.jpg[/IMG][/URL] :::::::::::::::::::::::::::::::::::::::::::::::::::::::::::::::::::::::::::::::: :::::::::::::::::::::::::::::::::::::::::::::88ZZZZZ888::::::::::::::::::::::::: :::::::::::::::::::::::::::::::::::::::::::::88ZZZZZ888::::::::::::::::::::::::: ::::::::::::::::::::::::::::::::::::::::::OOO+++??II7778D::::::::::::::::::::::: ::::::::::::::::::::::::::::::::::::::::OOII?+++++II777OOOOZ:::::::::::::::::::: ::::::::::::::::::::::::::::::::::::::::OOIII+++++II777OOOOO:::::::::::::::::::: ::::::::::::::::::::::::::::::::::::::::OO?II????III777OOOOO:::::88DDD88:::::::: ::::::::::::::::::::::::::::::::::::::::OOZZ$IIII777ZZ$88OOO::8OD888OOZZ888::::: ::::::::::::::::::::::::::::::::::::::::OOZZZ7777777ZZ$88OOO::88888888OO88O::::: ::::::::::::::::::::8888O:::::::::::::::::DDDZZ$$ZZZOOODD$$$::DDDOOOOOOO888::::: ::::::::::::::::::::88888:::::::::::::::::DDDZZ$ZZZZOOO88$$$::DDDOOOOOOO888::::: ::::::::::::::::::::88I??$$OZZ8888888::::::::88DDDDD88O$$:::::DDDZZOOO88OOO::::: ::::::::::::::::::::88+++???????777$$OOO8888888OOZ$$$$$:::::::888ZZOOO88OOZ::::: ::::::::::::::::::::88+++++?????777$$OOO8888888OOO$$$$$:::::::888ZZOOO88OOZ::::: ::::::::::::::::::::88???77777IIIIIII77777$$$ZZ8OO88DDD88:::88ZZZZZOOODD$ZZ::::: :::::::::::::::::OO8IIII?$$OOOZZ$$$$$$$$$$$$$$$$$$ZZZZZOO888DD$$$ZZOOODD$$$::::: :::::::::::::::::888IIIII$$OOOZZ$$$$$$$$$$$$$$$Z$ZZZZZOO8888DD$$$ZZOOODD$$$::::: :::::::::::::::::DDD??777ZZ8D888DDD88OOOZZZZZZZZZZZZZZZOOOOO888OOZZ88O88$$$::::: :::::::::::::::::DDD??7IIZZ8D88888D88OOOZZZZZZZZZZZZZZZOOOOO8888OZZ88888$$$::::: :::::::::::::::88OOOII$$7OOOOZ:::::O8ZZZZZZZZZZZZZZZOOOOOOOOOO888OO888OO:::::::: :::::::::::::::88ZZZII$$$88$$$:::::DD$$$$$ZZZZZZZZOODDDDDDDD88888OODD8$Z:::::::: :::::::::::::::88ZZZII$$$88$$$:::::DD$$$$$ZZZZZZZOOODDDDD8888888888DD8$$:::::::: :::::::::::::::88$$$77$$$DD$$$:::::O8777$$ZZZZZOOZ88ZZZZ$$$ZOO888DDDD8:::::::::: :::::::::::::::88ZZZ77OOO887$$:::::O8777ZZOZOOOOOODDZZZ::::::::::::::::::::::::: :::::::::::::::88ZZZ$$OOZ8877$:::::O8777ZZOZOOOOOODDZZZ::::::::::::::::::::::::: :::::::::::::::::OOODD888$$77$:::::ZZ777ZZOOOOOOOZDD$$$::::::::::::::::::::::::: :::::::::::::::::OOO8888O$$$$$:::::ZZ777ZZOOOOOOOZDD$$$::::::::::::::::::::::::: ::::::::::::::::::::7777777:::::8O8$$$$$OOOOOOO8OO88$$Z::::::::::::::::::::::::: ::::::::::::::::::::::::::::::::8O877$$$OOOOOOOOO8DDDDD8888888:::::::::::::::::: ::::::::::::::::::::::::::::::::8O877$$$OOOOOOO8OODDDD88888888:::::::::::::::::: ::::::::::::::::::::::::::::::::OOOIIZZZOOOOOOOOOOOO88888888DD88O::::::::::::::: ::::::::::::::::::::::::::::::OO$$$IIOOOOOOOOOOOOO888888888888DDD88::::::::::::: ::::::::::::::::::::::::::::::OO$$$IIZOOOOOOOOOO88888888888888DDD88::::::::::::: :::::::::::::::::::::::::::8OOZZIII$$OOODD88DDD8D8888888888888DD8OO::::::::::::: :::::::::::::::::::::::::::O88OOII?$$OOO88O8OD888888OO88888888DD888::::::::::::: :::::8888888OOO::::::::::OO888??777OO888OO$$$::ZZZOO888DD$$ZOO888DD888:::::::::: ::888ZZ?????777ZZ888DD888DD?????OOO888D8$$:::::::::::::88ZZZ$$888DDZOZ:::::::::: ::888ZZ?????777ZZ8888888888?????OOO888D8$$:::::::::::::88ZZZ$$888DDZOZ:::::::::: ::888OO$$$7777777$$$ZZOOOII++?ZZOOODD$$$$$:::::::::::::::888$$OOO88888:::::::::: :::::DD8OOOOZZZZZZZZZZOOOIII77OODD8OZ$$$:::::::::::::::::888ZZZZZ88DDD88:::::::: :::::DDOOOOOZZZZZZZZOOOOOII777OODD8ZZ$$$:::::::::::::::::888ZZZZZ88DDD88:::::::: :::::::OOO88DDD88888OOOOOOOOOO88OOO$$:::::::::::::::::::::::88ZZZ88DD8OO:::::::: :::::::ZZO8888888OOOZZOOOZZOOO88OOZ$$:::::::::::::::::::::::88OZO88DD888:::::::: ::::::::::::$$$ZZOOO88DDD88888DD$$$:::::::::::::::::::::::::88OOOOO888DD:::::::: ::::::::::::::::::::::$$$ZZOOO$$::::::::::::::::::::::::::::::888OO888DDZZZ::::: ::::::::::::::::::::::$$$ZZOOOZ$::::::::::::::::::::::::::::::888OO888DDZZZ::::: ::::::::::::::::::::::::::::::::::::::::::::::::::::::::::::::DDD88888DDZZZ::::: :::::::::::::::::::::::::::::::::::::::::::::::::::::::::::::::::DDDDDOO$$$::::: :::::::::::::::::::::::::::::::::::::::::::::::::::::::::::::::::DDDDDOO$$$::::: :::::::::::::::::::::::::::::::::::::::::::::::::::::::::::::::::::$$$$$:::::::: :::::::::::::::::::::::::::::::::::::::::::::::::::::::::::::::::::$$$$$:::::::: :::::::::\##::::\###::::\########::\##::::\##::\######:::\#######::\##::: ##:::: ::::::::: ##:::\## ##::: ##.... ##: ##:::: ##:\##... ##:\##.... ##: ###:: ##:::: ::::::::: ##::\##:. ##:: ##:::: ##: ##:::: ##: ##:::..:: ##:::: ##: ####: ##:::: ::::::::: ##:\##:::. ##: ########:: #########:. ######:: ##:::: ##: ## ## ##:::: :::\##::: ##: #########: ##.....::: ##.... ##::..... ##: ##:::: ##: ##. ####:::: ::::##::: ##: ##.... ##: ##:::::::: ##:::: ##:\##::: ##: ##:::: ##: ##:. ###:::: :::: ######:: ##:::: ##: ##:::::::: ##:::: ##:. ######::. #######:: ##::. ##:::: :::: Presents :::: Release iNFO DIVX RELEASE.....10/11/03 RIPPER..... Japhson IMDB RATE.....6.5/10 (21,728 votes) Country: .....USA HD Source.........1080P BluRay FRAME RATE.....23.976Fps VIDEO CODEC.....X264 8873K AUDIO CODEC....DTS 1510k RESOLUTION....1920x800 RUNTIME...109MINS GENERE.....Action Adventure Comedy Thriller LANGUAGE.....English SUBSTITLE....English MOVIE SIZE..... 1CD x86x100MB http://www.imdb.com/title/tt1013743/ :::::::::::::::::::::::::::::::::: :::::::::::::::::::::::::::::::::::: :::::::::::::::::::::::: :::::::::::::::::::::::: ::::::::::::::::: :::::::::::::::: ::::::::::::::::::: :::::::::::::::::: We are looking for: Looking for BluRay SUPPLiERS if you can help us,contact us :::::::::::::::::::::::::::::::::: :::::::::::::::::::::::::::::::::::: :::::::::::::::::::::::: :::::::::::::::::::::::: ::::::::::::::::: :::::::::::::::: ::::::::::::::::::: :::::::::::::::::: GREETINGS CULTHD hV [mediainfo] Video ID : 1 Format : AVC Format/Info : Advanced Video Codec Format profile : High@L4.1 Format settings, CABAC : Yes Format settings, ReFrames : 5 frames Codec ID : V_MPEG4/ISO/AVC Duration : 1h 49mn Bit rate : 8 873 Kbps Width : 1 920 pixels Height : 800 pixels Display aspect ratio : 2.40:1 Frame rate mode : Constant Frame rate : 23.976 fps Color space : YUV Chroma subsampling : 4:2:0 Bit depth : 8 bits Scan type : Progressive Bits/(Pixel*Frame) : 0.241 Stream size : 6.63 GiB (83%) Writing library : x264 core 105 r1732 2b04482 Encoding settings : cabac=1 / ref=5 / deblock=1:-1:-1 / analyse=0x3:0x113 / me=umh / subme=7 / psy=1 / psy_rd=1.00:0.00 / mixed_ref=1 / me_range=16 / chroma_me=1 / trellis=1 / 8x8dct=1 / cqm=0 / deadzone=21,11 / fast_pskip=1 / chroma_qp_offset=-2 / threads=12 / sliced_threads=0 / nr=0 / decimate=1 / interlaced=0 / constrained_intra=0 / bframes=3 / b_pyramid=2 / b_adapt=2 / b_bias=0 / direct=3 / weightb=1 / open_gop=0 / weightp=2 / keyint=250 / keyint_min=23 / scenecut=40 / intra_refresh=0 / rc_lookahead=40 / rc=2pass / mbtree=1 / bitrate=8873 / ratetol=1.0 / qcomp=0.60 / qpmin=10 / qpmax=51 / qpstep=4 / cplxblur=20.0 / qblur=0.5 / vbv_maxrate=50000 / vbv_bufsize=50000 / ip_ratio=1.40 / aq=1:1.00 / nal_hrd=none Language : English Default : Yes Forced : Yes Audio ID : 2 Format : DTS Format/Info : Digital Theater Systems Mode : 16 Format settings, Endianness : Big Codec ID : A_DTS Duration : 1h 49mn Bit rate mode : Constant Bit rate : 1 509 Kbps Channel(s) : 6 channels Channel positions : Front: L C R, Side: L R, LFE Sampling rate : 48.0 KHz Bit depth : 24 bits Compression mode : Lossy Stream size : 1.15 GiB (15%) Language : English Default : Yes Forced : Yes Text ID : 3 Format : UTF-8 Codec ID : S_TEXT/UTF8 Codec ID/Info : UTF-8 Plain Text Language : English Default : Yes Forced : No [/mediainfo]