BT-Chat.com Follow the Swarm - Latest Torrents 2015-01-26T09:19:07-05:00 tag:bt-chat.com,2007:05 Walking.The.Nile.2of4.720p.HDTV.x264.AAC.MVGroup.org.mp4.torrent MVGroup http://www.bt-chat.com/rss.php?group=232 artistharry http://www.bt-chat.com/users.php?id=74598 http://www.bt-chat.com/details.php%3Fid%3D203871 2015-01-26T07:37:11-05:00 1999-11-30T00:00:00.0-05:00
Walking the Nile Travel Documentary hosted by Levison Wood, published by Channel 4 in 2015 - English narration http://docuwiki.net/images/c/c2/Walking-the-Nile-Cover.jpg Information ------------------------------ Walking the Nile This new four-part series follows British explorer Levison Wood\s expedition to walk the length of the River Nile from source to sea. His nine-month journey takes him through jungles, savannah, deserts, cities and war zones in some of the continent\s most remote and spectacular locations. Along the way, he encounters modern Africa, its people and its wildlife face-to-face and at ground level. The Nile remains one of the last holy grails in exploration - no-one has ever completed its entire length on foot. Levison\s goal is to reach the Mediterranean Sea - whatever lies in his way and wherever the Nile takes him for 4200 miles. The river pushes him to the edge of his mental and physical limits as he is forced live off his wits and bushcraft skills. 1) Part 1 The first programme follows Lev and his guide Boston for their first 1,000 miles, from the river\s source in the Rwandan rainforest, through Tanzania\s remote and lawless regions and into Uganda. Heading deep into the Ajai Wildlife Reserve, an impenetrable swamp forces them into remote, barren ground cut off from civilisation. But even with rangers to carry their kit and extra water, nothing can prepare the duo for what lies ahead. 2) Part 2 Four months into his journey, explorer Levison Wood arrives in the capital of the world\s newest nation, South Sudan, only to be arrested by secret police. After several days\ delay he and his guide Boston are allowed to continue onwards and soon enjoy a highlight of the trek - an encounter with members of the Mundari tribe. This community has set up a cattle camp on an island in the middle of the River Nile, where its members lead a very simple and sustainable existence of only drinking milk, burning cow dung, washing in cow urine and covering themselves in ash to ward off flies and mosquitos. After bidding them farewell, Lev finds himself caught up in the worsening civil war as his path winds through minefields and he witnesses increasing numbers of refugees fleeing in the opposite direction. 3) Part 3 Five months into his journey, Levison Wood faces a 1,300-mile walk across the Sahara, one of the most inhospitable places on Earth, to reach the Egyptian border. He\s joined by a Sudanese guide, two nomads and three badly behaved camels. Together they encounter some of the most spectacular sights of the mission, camping among the ancient Meroe Pyramids. The explorer then tackles his toughest physical challenge - crossing the Bayuda volcanic field - where temperatures can reach 55C. Trekking 20 miles a day through blinding sandstorms, Lev soon starts to run out of water. 4) Part 4 After seven months of hiking, Levison Wood reaches his final country - Egypt - and with 900 miles still to go to reach the Mediterranean, the authorities give him just 45 days to finish. After walking the barren shores of Lake Nasser and exploring deserted temples, Lev reaches Aswan and spends a night at a historic hotel. Moving on, he discovers more of Egypt\s wonders, from magnificent buildings in the ancient city of Luxor, to the Pyramids of Giza, where he\s given a hero\s reception. The journey then takes him through strongholds for the Muslim Brotherhood opposition group, and as the security situation deteriorates he finds himself accompanied by police vans and armed officers. Screenshots ------------------------------ http://docuwiki.net/images/8/88/Walking-the-Nile-Screen0.jpg http://docuwiki.net/images/5/59/Walking-the-Nile-Screen1.jpg http://docuwiki.net/images/4/4a/Walking-the-Nile-Screen2.jpg http://docuwiki.net/images/3/31/Walking-the-Nile-Screen3.jpg http://docuwiki.net/images/4/4e/Walking-the-Nile-Screen4.jpg http://docuwiki.net/images/c/cd/Walking-the-Nile-Screen5.jpg http://docuwiki.net/images/b/bb/Walking-the-Nile-Screen6.jpg http://docuwiki.net/images/c/c8/Walking-the-Nile-Screen7.jpg http://docuwiki.net/images/d/db/Walking-the-Nile-Screen8.jpg http://docuwiki.net/images/1/18/Walking-the-Nile-Screen9.jpg http://docuwiki.net/images/c/c2/Walking-the-Nile-Screen10.jpg http://docuwiki.net/images/e/e7/Walking-the-Nile-Screen11.jpg http://docuwiki.net/images/8/84/Walking-the-Nile-Screen12.jpg http://docuwiki.net/images/1/19/Walking-the-Nile-Screen13.jpg http://docuwiki.net/images/b/b1/Walking-the-Nile-Screen14.jpg http://docuwiki.net/images/3/35/Walking-the-Nile-Screen15.jpg Technical Specs ------------------------------ * Video Codec: x264 CABAC High@L4.1 * Video Bitrate: 3190 Kbps * Video Aspect Ratio: 1.778 (16:9) * Video Resolution: 1280 x 720 * Audio Codec: AAC LC * Audio English * Audio Bitrate: 160 kb/s VBR 48 KHz * Audio Channels: Stereo 2 * Run-Time: 47mins * Framerate: 25 FPS * Number of Parts: 4 * Container Mp4 * Part Size: 1.03 GB * Source: HDTV * Encoded by: Harry65 Links ------------------------------ 1) Further Information * http://www.telegraph.co.uk/news/worldnews/africaandindianocean/11322572/Former-British-soldier-becomes-first-person-to-walk-the-Nile.html
Workaholics.S05E02.HDTV.x264-KILLERS.[eztv].torrent EZTV http://www.bt-chat.com/rss.php?group=3 eztv http://www.bt-chat.com/users.php?id=313 http://www.bt-chat.com/details.php%3Fid%3D203870 2015-01-26T06:25:48-05:00 1999-11-30T00:00:00.1-05:00
Help us by donating with Bitcoin: 1EZTVaGQ6UsjYJ9fwqGnd45oZ6HGT7WKZd #EZTV -> To avoid fakes, ALWAYS check that the torrent was added by eztv. https://eztv.ch/ Episode: Workaholics S05E02 HDTV x264-KILLERS Screenshots: https://ezimg.it/th/a0840639cfd9d365443f20ecf3046927/ce9a5ee099f437d26ef7d95b527546394637aaed.png
Broad.City.S02E02.HDTV.x264-KILLERS.[eztv].torrent EZTV http://www.bt-chat.com/rss.php?group=3 eztv http://www.bt-chat.com/users.php?id=313 http://www.bt-chat.com/details.php%3Fid%3D203869 2015-01-26T06:24:34-05:00 1999-11-30T00:00:00.2-05:00
Help us by donating with Bitcoin: 1EZTVaGQ6UsjYJ9fwqGnd45oZ6HGT7WKZd #EZTV -> To avoid fakes, ALWAYS check that the torrent was added by eztv. https://eztv.ch/ Episode: Broad City S02E02 HDTV x264-KILLERS Screenshots: https://ezimg.it/th/d03f34b998301d3a2d8c55362e099f85/070e29e65f5a9182e0750766d72d378f32a663c6.png
Galavant.S01E07.720p.HDTV.x264-KILLERS.[eztv].torrent EZTV http://www.bt-chat.com/rss.php?group=3 eztv http://www.bt-chat.com/users.php?id=313 http://www.bt-chat.com/details.php%3Fid%3D203868 2015-01-26T06:23:20-05:00 1999-11-30T00:00:00.3-05:00
Help us by donating with Bitcoin: 1EZTVaGQ6UsjYJ9fwqGnd45oZ6HGT7WKZd #EZTV -> To avoid fakes, ALWAYS check that the torrent was added by eztv. https://eztv.ch/ Episode: Galavant S01E07 720p HDTV x264-KILLERS Screenshots: https://ezimg.it/th/dd7ee2517a63549989cfe14df68fd40f/db670949dbb576bf0a67cf1f6cd33bcfae0efe5b.png
Galavant.S01E07.HDTV.x264-KILLERS.[eztv].torrent EZTV http://www.bt-chat.com/rss.php?group=3 eztv http://www.bt-chat.com/users.php?id=313 http://www.bt-chat.com/details.php%3Fid%3D203867 2015-01-26T06:23:02-05:00 1999-11-30T00:00:00.4-05:00
Help us by donating with Bitcoin: 1EZTVaGQ6UsjYJ9fwqGnd45oZ6HGT7WKZd #EZTV -> To avoid fakes, ALWAYS check that the torrent was added by eztv. https://eztv.ch/ Episode: Galavant S01E07 HDTV x264-KILLERS Screenshots: https://ezimg.it/th/dd7ee2517a63549989cfe14df68fd40f/2fdaa77fedc5a331d96563d115384363c73e0993.png
Walking.The.Nile.1of4.720p.HDTV.x264.AAC.MVGroup.org.mp4.torrent MVGroup http://www.bt-chat.com/rss.php?group=232 artistharry http://www.bt-chat.com/users.php?id=74598 http://www.bt-chat.com/details.php%3Fid%3D203866 2015-01-26T05:45:09-05:00 1999-11-30T00:00:00.5-05:00
Walking the Nile Travel Documentary hosted by Levison Wood, published by Channel 4 in 2015 - English narration http://docuwiki.net/images/c/c2/Walking-the-Nile-Cover.jpg Information ------------------------------ Walking the Nile This new four-part series follows British explorer Levison Wood\s expedition to walk the length of the River Nile from source to sea. His nine-month journey takes him through jungles, savannah, deserts, cities and war zones in some of the continent\s most remote and spectacular locations. Along the way, he encounters modern Africa, its people and its wildlife face-to-face and at ground level. The Nile remains one of the last holy grails in exploration - no-one has ever completed its entire length on foot. Levison\s goal is to reach the Mediterranean Sea - whatever lies in his way and wherever the Nile takes him for 4200 miles. The river pushes him to the edge of his mental and physical limits as he is forced live off his wits and bushcraft skills. 1) Part 1 The first programme follows Lev and his guide Boston for their first 1,000 miles, from the river\s source in the Rwandan rainforest, through Tanzania\s remote and lawless regions and into Uganda. Heading deep into the Ajai Wildlife Reserve, an impenetrable swamp forces them into remote, barren ground cut off from civilisation. But even with rangers to carry their kit and extra water, nothing can prepare the duo for what lies ahead. 2) Part 2 Four months into his journey, explorer Levison Wood arrives in the capital of the world\s newest nation, South Sudan, only to be arrested by secret police. After several days\ delay he and his guide Boston are allowed to continue onwards and soon enjoy a highlight of the trek - an encounter with members of the Mundari tribe. This community has set up a cattle camp on an island in the middle of the River Nile, where its members lead a very simple and sustainable existence of only drinking milk, burning cow dung, washing in cow urine and covering themselves in ash to ward off flies and mosquitos. After bidding them farewell, Lev finds himself caught up in the worsening civil war as his path winds through minefields and he witnesses increasing numbers of refugees fleeing in the opposite direction. 3) Part 3 Five months into his journey, Levison Wood faces a 1,300-mile walk across the Sahara, one of the most inhospitable places on Earth, to reach the Egyptian border. He\s joined by a Sudanese guide, two nomads and three badly behaved camels. Together they encounter some of the most spectacular sights of the mission, camping among the ancient Meroe Pyramids. The explorer then tackles his toughest physical challenge - crossing the Bayuda volcanic field - where temperatures can reach 55C. Trekking 20 miles a day through blinding sandstorms, Lev soon starts to run out of water. 4) Part 4 After seven months of hiking, Levison Wood reaches his final country - Egypt - and with 900 miles still to go to reach the Mediterranean, the authorities give him just 45 days to finish. After walking the barren shores of Lake Nasser and exploring deserted temples, Lev reaches Aswan and spends a night at a historic hotel. Moving on, he discovers more of Egypt\s wonders, from magnificent buildings in the ancient city of Luxor, to the Pyramids of Giza, where he\s given a hero\s reception. The journey then takes him through strongholds for the Muslim Brotherhood opposition group, and as the security situation deteriorates he finds himself accompanied by police vans and armed officers. Screenshots ------------------------------ http://docuwiki.net/images/8/88/Walking-the-Nile-Screen0.jpg http://docuwiki.net/images/5/59/Walking-the-Nile-Screen1.jpg http://docuwiki.net/images/4/4a/Walking-the-Nile-Screen2.jpg http://docuwiki.net/images/3/31/Walking-the-Nile-Screen3.jpg http://docuwiki.net/images/4/4e/Walking-the-Nile-Screen4.jpg http://docuwiki.net/images/c/cd/Walking-the-Nile-Screen5.jpg http://docuwiki.net/images/b/bb/Walking-the-Nile-Screen6.jpg http://docuwiki.net/images/c/c8/Walking-the-Nile-Screen7.jpg http://docuwiki.net/images/d/db/Walking-the-Nile-Screen8.jpg http://docuwiki.net/images/1/18/Walking-the-Nile-Screen9.jpg http://docuwiki.net/images/c/c2/Walking-the-Nile-Screen10.jpg http://docuwiki.net/images/e/e7/Walking-the-Nile-Screen11.jpg http://docuwiki.net/images/8/84/Walking-the-Nile-Screen12.jpg http://docuwiki.net/images/1/19/Walking-the-Nile-Screen13.jpg http://docuwiki.net/images/b/b1/Walking-the-Nile-Screen14.jpg http://docuwiki.net/images/3/35/Walking-the-Nile-Screen15.jpg Technical Specs ------------------------------ * Video Codec: x264 CABAC High@L4.1 * Video Bitrate: 3190 Kbps * Video Aspect Ratio: 1.778 (16:9) * Video Resolution: 1280 x 720 * Audio Codec: AAC LC * Audio English * Audio Bitrate: 160 kb/s VBR 48 KHz * Audio Channels: Stereo 2 * Run-Time: 47mins * Framerate: 25 FPS * Number of Parts: 4 * Container Mp4 * Part Size: 1.03 GB * Source: HDTV * Encoded by: Harry65 Links ------------------------------ 1) Further Information * http://www.telegraph.co.uk/news/worldnews/africaandindianocean/11322572/Former-British-soldier-becomes-first-person-to-walk-the-Nile.html 2) Related Documentaries * http://docuwiki.net/?title=Nile%3A%20River%20of%20Gods * http://docuwiki.net/?title=Violence%20Along%20the%20Nile * http://docuwiki.net/?title=Mystery%20of%20the%20Nile * http://docuwiki.net/?title=Wild%20Nile * http://docuwiki.net/?title=Nile%20%28BBC%29
Episodes.S04E04.HDTV.x264-BATV.[eztv].torrent EZTV http://www.bt-chat.com/rss.php?group=3 eztv http://www.bt-chat.com/users.php?id=313 http://www.bt-chat.com/details.php%3Fid%3D203865 2015-01-26T04:33:00-05:00 1999-11-30T00:00:00.6-05:00
Help us by donating with Bitcoin: 1EZTVaGQ6UsjYJ9fwqGnd45oZ6HGT7WKZd #EZTV -> To avoid fakes, ALWAYS check that the torrent was added by eztv. https://eztv.ch/ Episode: Episodes S04E04 HDTV x264-BATV Screenshots: https://ezimg.it/th/dda3d1f1791a064970ec08e43ceadb85/5927bfa6f98a49fb8491e2e9462179b55ad7b4e9.png
XXX.2002.1080p.BluRay.x264-SECTOR7.torrent Verified http://www.bt-chat.com/rss.php?group=230 Drarbg http://www.bt-chat.com/users.php?id=143535 http://www.bt-chat.com/details.php%3Fid%3D203864 2015-01-26T04:13:56-05:00 1999-11-30T00:00:00.7-05:00
xXx.2002.1080p.BluRay.x264-SECTOR7 07.20.2008 Source: 1080P BluRay h.264 Video: 1920x800 @ 11000 kbps Audio: AC3 @ 640 kbps IMDB: 5.5/10 (38,178 votes) IMDB LINk: http://us.imdb.com/title/tt0295701/ Screens: [url=http://imagecurl.com/viewer.php?file=51928475974592494712.png][img]http://imagecurl.com/images/51928475974592494712_thumb.png[/img][/url] [url=http://imagecurl.com/viewer.php?file=23786845506003988169.png][img]http://imagecurl.com/images/23786845506003988169_thumb.png[/img][/url] [url=http://imagecurl.com/viewer.php?file=25219269646390802405.png][img]http://imagecurl.com/images/25219269646390802405_thumb.png[/img][/url] [url=http://imagecurl.com/viewer.php?file=72622884614240749589.png][img]http://imagecurl.com/images/72622884614240749589_thumb.png[/img][/url] [url=http://imagecurl.com/viewer.php?file=14271491985829580569.png][img]http://imagecurl.com/images/14271491985829580569_thumb.png[/img][/url] [url=http://imagecurl.com/viewer.php?file=60580399695931035378.png][img]http://imagecurl.com/images/60580399695931035378_thumb.png[/img][/url] [mediainfo] Video ID : 1 Format : AVC Format/Info : Advanced Video Codec Format profile : High@L5.1 Format settings, CABAC : Yes Format settings, ReFrames : 5 frames Codec ID : V_MPEG4/ISO/AVC Duration : 2h 4mn Bit rate : 12.2 Mbps Width : 1 920 pixels Height : 800 pixels Display aspect ratio : 2.40:1 Frame rate mode : Constant Frame rate : 23.976 fps Color space : YUV Chroma subsampling : 4:2:0 Bit depth : 8 bits Scan type : Progressive Bits/(Pixel*Frame) : 0.330 Stream size : 10.3 GiB (94%) Writing library : x264 core 60 r901M 58d7d06 Encoding settings : cabac=1 / ref=5 / deblock=1:-1:-1 / analyse=0x3:0x133 / me=umh / subme=6 / rdcmp=psy / brdo=1 / mixed_ref=1 / me_range=16 / chroma_me=1 / trellis=1 / 8x8dct=1 / cqm=1 / deadzone=21,11 / chroma_qp_offset=0 / threads=8 / nr=0 / decimate=1 / mbaff=0 / bframes=3 / b_pyramid=1 / b_adapt=1 / b_bias=0 / direct=3 / wpredb=1 / bime=1 / keyint=240 / keyint_min=24 / scenecut=40(pre) / rc=2pass / bitrate=12160 / ratetol=1.0 / rceq=\blurCplx^(1-qComp)\ / qcomp=1.00 / qpmin=10 / qpmax=51 / qpstep=4 / cplxblur=20.0 / qblur=0.5 / ip_ratio=1.40 / pb_ratio=1.30 / aq=2:1.00 Language : English Default : Yes Forced : No Audio ID : 2 Format : AC-3 Format/Info : Audio Coding 3 Mode extension : CM (complete main) Format settings, Endianness : Big Codec ID : A_AC3 Duration : 2h 4mn Bit rate mode : Constant Bit rate : 448 Kbps Channel(s) : 6 channels Channel positions : Front: L C R, Side: L R, LFE Sampling rate : 48.0 KHz Bit depth : 16 bits Compression mode : Lossy Stream size : 398 MiB (4%) Default : Yes Forced : No [/mediainfo]
Revenge.S04E14.HDTV.x264-LOL.[eztv].torrent EZTV http://www.bt-chat.com/rss.php?group=3 eztv http://www.bt-chat.com/users.php?id=313 http://www.bt-chat.com/details.php%3Fid%3D203863 2015-01-26T04:13:49-05:00 1999-11-30T00:00:00.8-05:00
Help us by donating with Bitcoin: 1EZTVaGQ6UsjYJ9fwqGnd45oZ6HGT7WKZd #EZTV -> To avoid fakes, ALWAYS check that the torrent was added by eztv. https://eztv.ch/ Episode: Revenge S04E14 HDTV x264-LOL Screenshots: https://ezimg.it/th/a68aa7873fc5f26a1a0cbaeeb65156d7/00bbecd86b5116e3696b4675e3614fc8091fcf6f.png
V.H.S.2012.LiMiTED.1080p.BluRay.x264-AN0NYM0US.torrent Verified http://www.bt-chat.com/rss.php?group=230 Drarbg http://www.bt-chat.com/users.php?id=143535 http://www.bt-chat.com/details.php%3Fid%3D203862 2015-01-26T04:11:25-05:00 1999-11-30T00:00:00.9-05:00
ß Ü V.H.S.2012.LiMiTED.1080p.BluRay.x264-AN0NYM0US RELEASE DATE: 10/19/12 STORE DATE..: 10/25/12 SOURCE......: BluRay Region B FSK.........: 18 RUNTIME.....: 116 min. ViDEO.......: @ 8285Kbps RESOLUTION..: 1920 x 1080 AUDiO.......: EN DTS @ 1509Kbps SUBTITLES...: - GENRE.......: Horror RATING......: 6.0/10 / 6895 http://www.imdb.com/title/tt2105044/ ÜÜßßßÛ ÛßßßÜÜ ÛÛÛßÜÜÜÜÜÜÜÜÜÜÜÜÜÜÜÜÜÜÜÜÜÜÜÜÜÜÜÜÜÜÜÜÜÜÜÜÜÜÜÜÜÜÜÜÜÜÜÜÜÜÜÜÜÜÜÜÜÜÜÜÜÜÜÜÜÜÜÜßÛÛÛ ÛÛÛ² ²ÛÛÛ ÛÛÛ² Screens: [url=http://imagecurl.com/viewer.php?file=85183270797423354869.png][img]http://imagecurl.com/images/85183270797423354869_thumb.png[/img][/url] [url=http://imagecurl.com/viewer.php?file=75043180261611740982.png][img]http://imagecurl.com/images/75043180261611740982_thumb.png[/img][/url] [url=http://imagecurl.com/viewer.php?file=80042673715361214355.png][img]http://imagecurl.com/images/80042673715361214355_thumb.png[/img][/url] [url=http://imagecurl.com/viewer.php?file=84298529290075166022.png][img]http://imagecurl.com/images/84298529290075166022_thumb.png[/img][/url] [url=http://imagecurl.com/viewer.php?file=08524525455746989206.png][img]http://imagecurl.com/images/08524525455746989206_thumb.png[/img][/url] [url=http://imagecurl.com/viewer.php?file=98547035847127755695.png][img]http://imagecurl.com/images/98547035847127755695_thumb.png[/img][/url] [mediainfo] Video ID : 1 Format : AVC Format/Info : Advanced Video Codec Format profile : High@L4.1 Format settings, CABAC : Yes Format settings, ReFrames : 4 frames Codec ID : V_MPEG4/ISO/AVC Duration : 1h 30mn Bit rate : 8 817 Kbps Width : 1 920 pixels Height : 1 080 pixels Display aspect ratio : 16:9 Frame rate mode : Constant Frame rate : 23.976 fps Color space : YUV Chroma subsampling : 4:2:0 Bit depth : 8 bits Scan type : Progressive Bits/(Pixel*Frame) : 0.177 Stream size : 5.47 GiB (83%) Writing library : x264 core 120 r2146 bcd41db Encoding settings : cabac=1 / ref=4 / deblock=1:0:0 / analyse=0x3:0x133 / me=umh / subme=7 / psy=1 / psy_rd=1.00:0.00 / mixed_ref=1 / me_range=16 / chroma_me=1 / trellis=1 / 8x8dct=1 / cqm=0 / deadzone=21,11 / fast_pskip=0 / chroma_qp_offset=-2 / threads=12 / sliced_threads=0 / nr=0 / decimate=1 / interlaced=0 / bluray_compat=0 / constrained_intra=0 / bframes=3 / b_pyramid=2 / b_adapt=1 / b_bias=0 / direct=1 / weightb=1 / open_gop=0 / weightp=2 / keyint=250 / keyint_min=23 / scenecut=40 / intra_refresh=0 / rc_lookahead=40 / rc=2pass / mbtree=1 / bitrate=8817 / ratetol=1.0 / qcomp=0.60 / qpmin=0 / qpmax=69 / qpstep=4 / cplxblur=20.0 / qblur=0.5 / ip_ratio=1.40 / aq=1:1.00 Language : English Default : Yes Forced : No Audio ID : 2 Format : DTS Format/Info : Digital Theater Systems Mode : 16 Format settings, Endianness : Big Codec ID : A_DTS Duration : 1h 30mn Bit rate mode : Constant Bit rate : 1 509 Kbps Channel(s) : 6 channels Channel positions : Front: L C R, Side: L R, LFE Sampling rate : 48.0 KHz Bit depth : 24 bits Compression mode : Lossy Stream size : 981 MiB (15%) Language : English Default : Yes Forced : No Text ID : 3 Format : UTF-8 Codec ID : S_TEXT/UTF8 Codec ID/Info : UTF-8 Plain Text Language : English Default : Yes Forced : No [/mediainfo]
V.H.S.2.2013.LIMITED.1080p.BluRay.x264-GECKOS.torrent Verified http://www.bt-chat.com/rss.php?group=230 Drarbg http://www.bt-chat.com/users.php?id=143535 http://www.bt-chat.com/details.php%3Fid%3D203861 2015-01-26T04:07:54-05:00 1999-11-30T00:00:00.10-05:00
V.H.S.2.2013.LIMITED.1080p.BluRay.x264-GECKOS UUýá UUUUUUUUUUýáááUý U Date : 22.09.2013 ýáá š _UUUUUUUUýášUUýá šá URL : http://www.imdb.com/title/tt2450186 ýááUUý UUUUUUUUUýšáUýá U X264 bitrate : 8297Kbps Y šUUUUUUUUUUUýá šá Resolution : 1920x1080 š šššUUUUUUUUUUUýáá áššššš Size : 6714MB (7040161613 Bytes) UUUUUUUUUUUUUýá šš ššš U Audio : DTS 1509Kbps 6ch UUUUUUUUUUUUUý UUý UUýá áš Language : English UUUUUUUUUUUUUý áýššUýá šš áš Subtitles : English, spanish UUUUUUUUUUUUUý UUUUUUUUUUý U Runtime : 1h 35mn UUUUUUUUUUUUýšššUUUUUUUýš áá šá UUUUUUý UUUUUUUUUýá š UUý šá ššššššššššššššššššššššššššššššššššššššáš š ýUU UUUUUUUý áUUUýáá šá áš á šá _Y_Y ýUY UUUUUUUUY ššššááá ááá Notes ášášUUY UUUUUUUUý áššššš áá UUUUUUUUý šš áššááááš UUUUUUUUý šUUUýš Uý áš UUUUUUUUYšUUUUUUý šUýšýá U UUUUUUýášUUUUUUUUUUUUýššš U UUUUUUUUUUUUýšáUUýáUýš á šá UUUUUUUUUUUUýá á šš áá U UUUUUUUUUUUýš U áááá šššššššššššššššššššššššššššššššššššššššššššššššššššššš šááUUUUUUUUUUUýš áš _Y šU ýUU UUýš ááUUUUUUUUýš áš Greetings Screens: [url=http://imagecurl.com/viewer.php?file=65991205461754843405.png][img]http://imagecurl.com/images/65991205461754843405_thumb.png[/img][/url] [url=http://imagecurl.com/viewer.php?file=52274583711522825818.png][img]http://imagecurl.com/images/52274583711522825818_thumb.png[/img][/url] [url=http://imagecurl.com/viewer.php?file=22743976402803417894.png][img]http://imagecurl.com/images/22743976402803417894_thumb.png[/img][/url] [url=http://imagecurl.com/viewer.php?file=35116955712652886483.png][img]http://imagecurl.com/images/35116955712652886483_thumb.png[/img][/url] [url=http://imagecurl.com/viewer.php?file=31654848082084877992.png][img]http://imagecurl.com/images/31654848082084877992_thumb.png[/img][/url] [url=http://imagecurl.com/viewer.php?file=25903246868890911433.png][img]http://imagecurl.com/images/25903246868890911433_thumb.png[/img][/url] [mediainfo] Video ID : 1 Format : AVC Format/Info : Advanced Video Codec Format profile : High@L4.1 Format settings, CABAC : Yes Format settings, ReFrames : 4 frames Codec ID : V_MPEG4/ISO/AVC Duration : 1h 35mn Bit rate : 8 297 Kbps Width : 1 920 pixels Height : 1 080 pixels Display aspect ratio : 16:9 Frame rate mode : Constant Frame rate : 23.976 fps Color space : YUV Chroma subsampling : 4:2:0 Bit depth : 8 bits Scan type : Progressive Bits/(Pixel*Frame) : 0.167 Stream size : 5.42 GiB (83%) Title : X264 Writing library : x264 core 133 r2334 a3ac64b Encoding settings : cabac=1 / ref=4 / deblock=1:0:0 / analyse=0x3:0x133 / me=umh / subme=7 / psy=1 / psy_rd=1.00:0.00 / mixed_ref=1 / me_range=16 / chroma_me=1 / trellis=1 / 8x8dct=1 / cqm=0 / deadzone=21,11 / fast_pskip=0 / chroma_qp_offset=-2 / threads=36 / lookahead_threads=6 / sliced_threads=0 / nr=0 / decimate=1 / interlaced=0 / bluray_compat=0 / constrained_intra=0 / bframes=3 / b_pyramid=2 / b_adapt=1 / b_bias=0 / direct=1 / weightb=1 / open_gop=0 / weightp=2 / keyint=250 / keyint_min=23 / scenecut=40 / intra_refresh=0 / rc_lookahead=40 / rc=2pass / mbtree=1 / bitrate=8297 / ratetol=1.0 / qcomp=0.60 / qpmin=0 / qpmax=69 / qpstep=4 / cplxblur=20.0 / qblur=0.5 / ip_ratio=1.40 / aq=1:1.00 Language : English Default : Yes Forced : No Audio ID : 2 Format : DTS Format/Info : Digital Theater Systems Mode : 16 Format settings, Endianness : Big Codec ID : A_DTS Duration : 1h 35mn Bit rate mode : Constant Bit rate : 1 509 Kbps Channel(s) : 6 channels Channel positions : Front: L C R, Side: L R, LFE Sampling rate : 48.0 KHz Bit depth : 24 bits Compression mode : Lossy Stream size : 1.01 GiB (15%) Title : DTS Language : English Default : Yes Forced : No Menu 00:00:00.000 : en:00:00:00.000 00:08:05.402 : en:00:08:05.402 00:16:30.531 : en:00:16:30.531 00:25:11.927 : en:00:25:11.927 00:26:44.353 : en:00:26:44.353 00:31:51.118 : en:00:31:51.118 00:40:11.451 : en:00:40:11.451 00:41:53.261 : en:00:41:53.261 00:50:08.380 : en:00:50:08.380 01:00:18.031 : en:01:00:18.031 01:04:38.917 : en:01:04:38.917 01:12:19.168 : en:01:12:19.168 01:13:43.044 : en:01:13:43.044 01:18:27.244 : en:01:18:27.244 01:26:57.671 : en:01:26:57.671 01:32:13.737 : en:01:32:13.737 [/mediainfo]
Unthinkable.2010.EXTENDED.1080p.Bluray.x264-LEVERAGE.torrent Verified http://www.bt-chat.com/rss.php?group=230 Drarbg http://www.bt-chat.com/users.php?id=143535 http://www.bt-chat.com/details.php%3Fid%3D203860 2015-01-26T04:05:36-05:00 1999-11-30T00:00:00.11-05:00
Unthinkable.2010.EXTENDED.1080p.Bluray.x264-LEVERAGE Video....: x264 @ 10200kbps Audio....: English DTS 5.1 1510kbps Size.....: 86x100 Length...: 97min Subs.....: English http://www.imdb.com/title/tt0914863/ Here it is, extended cut 97 mins long. Enjoy! Screens: [url=http://imagecurl.com/viewer.php?file=95886285993344735022.png][img]http://imagecurl.com/images/95886285993344735022_thumb.png[/img][/url] [url=http://imagecurl.com/viewer.php?file=59587869274399943498.png][img]http://imagecurl.com/images/59587869274399943498_thumb.png[/img][/url] [url=http://imagecurl.com/viewer.php?file=68953523567844118851.png][img]http://imagecurl.com/images/68953523567844118851_thumb.png[/img][/url] [url=http://imagecurl.com/viewer.php?file=76891039000197864266.png][img]http://imagecurl.com/images/76891039000197864266_thumb.png[/img][/url] [url=http://imagecurl.com/viewer.php?file=97928620599836720112.png][img]http://imagecurl.com/images/97928620599836720112_thumb.png[/img][/url] [url=http://imagecurl.com/viewer.php?file=08403584866596552482.png][img]http://imagecurl.com/images/08403584866596552482_thumb.png[/img][/url] [mediainfo] Video ID : 1 Format : AVC Format/Info : Advanced Video Codec Format profile : High@L4.1 Format settings, CABAC : Yes Format settings, ReFrames : 4 frames Codec ID : V_MPEG4/ISO/AVC Duration : 1h 37mn Bit rate : 10.2 Mbps Width : 1 920 pixels Height : 1 040 pixels Display aspect ratio : 1.85:1 Frame rate mode : Constant Frame rate : 23.976 fps Color space : YUV Chroma subsampling : 4:2:0 Bit depth : 8 bits Scan type : Progressive Bits/(Pixel*Frame) : 0.213 Stream size : 6.75 GiB (85%) Writing library : x264 core 96 r1613 81e75e9 Encoding settings : cabac=1 / ref=4 / deblock=1:0:0 / analyse=0x3:0x2 / me=umh / subme=7 / psy=1 / psy_rd=1.00:0.00 / mixed_ref=1 / me_range=16 / chroma_me=0 / trellis=1 / 8x8dct=1 / cqm=0 / deadzone=21,11 / fast_pskip=0 / chroma_qp_offset=-2 / threads=12 / sliced_threads=0 / nr=0 / decimate=1 / interlaced=0 / constrained_intra=0 / bframes=3 / b_pyramid=0 / b_adapt=1 / b_bias=0 / direct=1 / weightb=1 / weightp=2 / keyint=250 / keyint_min=25 / scenecut=40 / intra_refresh=0 / rc=2pass / mbtree=0 / bitrate=10209 / ratetol=1.0 / qcomp=0.60 / qpmin=10 / qpmax=51 / qpstep=4 / cplxblur=20.0 / qblur=0.5 / ip_ratio=1.40 / pb_ratio=1.30 / aq=1:1.00 Language : English Default : No Forced : No Audio ID : 2 Format : DTS Format/Info : Digital Theater Systems Mode : 16 Format settings, Endianness : Big Codec ID : A_DTS Duration : 1h 37mn Bit rate mode : Constant Bit rate : 1 509 Kbps Channel(s) : 6 channels Channel positions : Front: L C R, Side: L R, LFE Sampling rate : 48.0 KHz Bit depth : 24 bits Compression mode : Lossy Stream size : 1.02 GiB (13%) Language : English Default : Yes Forced : No Text ID : 3 Format : UTF-8 Codec ID : S_TEXT/UTF8 Codec ID/Info : UTF-8 Plain Text Language : English Default : Yes Forced : No [/mediainfo]
The.Sunset.Limited.2011.1080p.BluRay.x264-HD4U.torrent Verified http://www.bt-chat.com/rss.php?group=230 Drarbg http://www.bt-chat.com/users.php?id=143535 http://www.bt-chat.com/details.php%3Fid%3D203859 2015-01-26T04:03:34-05:00 1999-11-30T00:00:00.12-05:00
::: ::: ::::::::: ::: ::: ::: :+: :+: :+: :+: :+: :+: :+: +:+ +:+ +:+ +:+ +:+ +:+ +:+ +:+ +#++:++#++ +#+ +:+ +#++:++#++:++ +#+ +:+ +#++:++#++:++ +#+ +:+ +#+ +#+ +#+ +#+ +#+#+#+#+#+ +#+ +#+ #+# #+# #+# #+# #+# #+# #+# ### ### ######### ### ######## presents.. Release___: The.Sunset.Limited.2011.1080p.BluRay.x264-HD4U Date______: 26.01.2012 Url_______: http://www.imdb.com/title/tt1510938/ Res_______: 1920x1080 Bitrate___: 2pass @ 8817Kbps Audio_____: English DTS Subtitles_: English U _____ u_ _ _ U ___ u__ __ _ | ___"|/ |"| U |"| u /"_ / / / U|"|u | _|" _ | |/ | | | | V / | |/ | |___U| | |u| |_| |_,-..-,_| |_| |U_|"|_u |_| |_____||_| _| ___/-(_/ _)-___/ |_| (_) >|| \,-._// \ .-,//|(_ |||_ (__) (__)_") (_/(__) (__) _) (__) (__)_) We are currently looking for.. Screens: [url=http://imagecurl.com/viewer.php?file=55935540524819490637.png][img]http://imagecurl.com/images/55935540524819490637_thumb.png[/img][/url] [url=http://imagecurl.com/viewer.php?file=92717760040615287248.png][img]http://imagecurl.com/images/92717760040615287248_thumb.png[/img][/url] [url=http://imagecurl.com/viewer.php?file=77226738201616064382.png][img]http://imagecurl.com/images/77226738201616064382_thumb.png[/img][/url] [url=http://imagecurl.com/viewer.php?file=56885355156143403485.png][img]http://imagecurl.com/images/56885355156143403485_thumb.png[/img][/url] [url=http://imagecurl.com/viewer.php?file=68837639339339603590.png][img]http://imagecurl.com/images/68837639339339603590_thumb.png[/img][/url] [url=http://imagecurl.com/viewer.php?file=96619944004421187034.png][img]http://imagecurl.com/images/96619944004421187034_thumb.png[/img][/url] [mediainfo] Video ID : 1 Format : AVC Format/Info : Advanced Video Codec Format profile : High@L4.1 Format settings, CABAC : Yes Format settings, ReFrames : 4 frames Codec ID : V_MPEG4/ISO/AVC Duration : 1h 30mn Bit rate : 8 817 Kbps Width : 1 920 pixels Height : 1 080 pixels Display aspect ratio : 16:9 Frame rate mode : Constant Frame rate : 23.976 fps Color space : YUV Chroma subsampling : 4:2:0 Bit depth : 8 bits Scan type : Progressive Bits/(Pixel*Frame) : 0.177 Stream size : 5.47 GiB (83%) Writing library : x264 core 120 r2146 bcd41db Encoding settings : cabac=1 / ref=4 / deblock=1:0:0 / analyse=0x3:0x133 / me=umh / subme=7 / psy=1 / psy_rd=1.00:0.00 / mixed_ref=1 / me_range=16 / chroma_me=1 / trellis=1 / 8x8dct=1 / cqm=0 / deadzone=21,11 / fast_pskip=0 / chroma_qp_offset=-2 / threads=12 / sliced_threads=0 / nr=0 / decimate=1 / interlaced=0 / bluray_compat=0 / constrained_intra=0 / bframes=3 / b_pyramid=2 / b_adapt=1 / b_bias=0 / direct=1 / weightb=1 / open_gop=0 / weightp=2 / keyint=250 / keyint_min=23 / scenecut=40 / intra_refresh=0 / rc_lookahead=40 / rc=2pass / mbtree=1 / bitrate=8817 / ratetol=1.0 / qcomp=0.60 / qpmin=0 / qpmax=69 / qpstep=4 / cplxblur=20.0 / qblur=0.5 / ip_ratio=1.40 / aq=1:1.00 Language : English Default : Yes Forced : No Audio ID : 2 Format : DTS Format/Info : Digital Theater Systems Mode : 16 Format settings, Endianness : Big Codec ID : A_DTS Duration : 1h 30mn Bit rate mode : Constant Bit rate : 1 509 Kbps Channel(s) : 6 channels Channel positions : Front: L C R, Side: L R, LFE Sampling rate : 48.0 KHz Bit depth : 24 bits Compression mode : Lossy Stream size : 981 MiB (15%) Language : English Default : Yes Forced : No Text ID : 3 Format : UTF-8 Codec ID : S_TEXT/UTF8 Codec ID/Info : UTF-8 Plain Text Language : English Default : Yes Forced : No [/mediainfo]
The.Search.For.One.Eye.Jimmy.1994.1080p.BluRay.X264-LEVERAGE.torrent Verified http://www.bt-chat.com/rss.php?group=230 Drarbg http://www.bt-chat.com/users.php?id=143535 http://www.bt-chat.com/details.php%3Fid%3D203858 2015-01-26T04:01:44-05:00 1999-11-30T00:00:00.13-05:00
²²²±±±±±±± ßßßßßßßÛÛÛÛÛÛÛÛÛÛÛÛÛÛÛÛÜÜÜÜÜÜÜ ²²²²²²²²²± ßßßßßßÛÛÛÛÛÛÛÛÛÛÛÛÛÛÛÜÜÜÜÜÜÜÜÜ ÛÛÛÛÛÛÛÛ²± ÛÛÛßßßßßÛÛÛÛÛÛÛÛÛÛÛ²²²²²²²²²² ° °°° °°°°°±±±±±±±±±±±±±±±±±±±±±±±±±ÛÛÛ±±±±±±²²²²ÛÛÛÛÛÛÛÛÛÛÛÛÛÛÛÛÛ Source.......: BluRay Video........: x264 @ 9570 kbps Audio........: English DTS @ 1510 kbps Subtitles....: None Runtime......: 84 min IMDB.........: http://www.imdb.com/title/tt0117577/ Rating.......: 5.6/10 from 821 users Plot.........: While working on a documentary on his old neighborhood, a young film school graduate shifts the focus of his production onto the disappearance of a local resident and the strange characters who are conducting the search to find him. GROUP NOTES ÜÛÛÛÛÛÜÜÜÜÜ ßÛÛÛÛÛÛÛÛÛÛÛÛÛÛÛÛÛÛÜÜÜÜÜÜÜÜ ²²²±±±±±±± ßßßßßßßÛÛÛÛÛÛÛÛÛÛÛÛÛÛÛÛÜÜÜÜÜÜÜ ²²²²²²²²²± ßßßßßßÛÛÛÛÛÛÛÛÛÛÛÛÛÛÛÜÜÜÜÜÜÜÜÜ ÛÛÛÛÛÛÛÛ²± ÛÛÛßßßßßÛÛÛÛÛÛÛÛÛÛÛ²²²²²²²²²² ° °°° ° Screens: [url=http://imagecurl.com/viewer.php?file=74801246319035164367.png][img]http://imagecurl.com/images/74801246319035164367_thumb.png[/img][/url] [url=http://imagecurl.com/viewer.php?file=20217782794665488806.png][img]http://imagecurl.com/images/20217782794665488806_thumb.png[/img][/url] [url=http://imagecurl.com/viewer.php?file=76981657615066393549.png][img]http://imagecurl.com/images/76981657615066393549_thumb.png[/img][/url] [url=http://imagecurl.com/viewer.php?file=54461643253637360594.png][img]http://imagecurl.com/images/54461643253637360594_thumb.png[/img][/url] [url=http://imagecurl.com/viewer.php?file=22637771864568748094.png][img]http://imagecurl.com/images/22637771864568748094_thumb.png[/img][/url] [url=http://imagecurl.com/viewer.php?file=42752760850029980115.png][img]http://imagecurl.com/images/42752760850029980115_thumb.png[/img][/url] [mediainfo] Video ID : 1 Format : AVC Format/Info : Advanced Video Codec Format profile : High@L4.1 Format settings, CABAC : Yes Format settings, ReFrames : 4 frames Codec ID : V_MPEG4/ISO/AVC Duration : 1h 24mn Bit rate : 9 570 Kbps Width : 1 920 pixels Height : 1 080 pixels Display aspect ratio : 16:9 Frame rate mode : Constant Frame rate : 23.976 fps Color space : YUV Chroma subsampling : 4:2:0 Bit depth : 8 bits Scan type : Progressive Bits/(Pixel*Frame) : 0.192 Stream size : 5.53 GiB (84%) Writing library : x264 core 120 r2164 da19765 Encoding settings : cabac=1 / ref=4 / deblock=1:0:0 / analyse=0x3:0x2 / me=umh / subme=7 / psy=1 / psy_rd=1.00:0.00 / mixed_ref=1 / me_range=16 / chroma_me=1 / trellis=1 / 8x8dct=1 / cqm=0 / deadzone=21,11 / fast_pskip=1 / chroma_qp_offset=-2 / threads=6 / sliced_threads=0 / nr=0 / decimate=1 / interlaced=0 / bluray_compat=0 / constrained_intra=0 / bframes=3 / b_pyramid=2 / b_adapt=1 / b_bias=0 / direct=1 / weightb=0 / open_gop=0 / weightp=2 / keyint=240 / keyint_min=23 / scenecut=40 / intra_refresh=0 / rc=2pass / mbtree=0 / bitrate=9570 / ratetol=1.0 / qcomp=0.60 / qpmin=10 / qpmax=51 / qpstep=4 / cplxblur=20.0 / qblur=0.5 / ip_ratio=1.40 / pb_ratio=1.30 / aq=1:1.00 Language : English Default : Yes Forced : No Audio ID : 2 Format : DTS Format/Info : Digital Theater Systems Mode : 16 Format settings, Endianness : Big Codec ID : A_DTS Duration : 1h 24mn Bit rate mode : Constant Bit rate : 1 509 Kbps Channel(s) : 6 channels Channel(s)_Original : 2 channels Channel positions : Front: L R Sampling rate : 48.0 KHz Bit depth : 24 bits Compression mode : Lossy Stream size : 915 MiB (14%) Title : English DTS 1509kbps Language : English Default : Yes Forced : No [/mediainfo]
Looking.S02E03.HDTV.x264-KILLERS.[eztv].torrent EZTV http://www.bt-chat.com/rss.php?group=3 eztv http://www.bt-chat.com/users.php?id=313 http://www.bt-chat.com/details.php%3Fid%3D203857 2015-01-26T04:01:10-05:00 1999-11-30T00:00:00.14-05:00
Help us by donating with Bitcoin: 1EZTVaGQ6UsjYJ9fwqGnd45oZ6HGT7WKZd #EZTV -> To avoid fakes, ALWAYS check that the torrent was added by eztv. https://eztv.ch/ Episode: Looking S02E03 HDTV x264-KILLERS Screenshots: https://ezimg.it/th/9f8d365508ded3ca9701eff2003d6ade/078d4c7e9b239456e726e3c9c612139f2b09dbff.png
Undercover.Boss.US.S06E08.HDTV.x264-W4F.[eztv].torrent EZTV http://www.bt-chat.com/rss.php?group=3 eztv http://www.bt-chat.com/users.php?id=313 http://www.bt-chat.com/details.php%3Fid%3D203856 2015-01-26T04:00:15-05:00 1999-11-30T00:00:00.15-05:00
Help us by donating with Bitcoin: 1EZTVaGQ6UsjYJ9fwqGnd45oZ6HGT7WKZd #EZTV -> To avoid fakes, ALWAYS check that the torrent was added by eztv. https://eztv.ch/ Episode: Undercover Boss US S06E08 HDTV x264-W4F Screenshots: https://ezimg.it/th/02552d3c116b8a96f9ff0001b6ae661c/96166b282e56490ae383358ceee42d4034fd8a84.png
Togetherness.S01E03.HDTV.x264-KILLERS.[eztv].torrent EZTV http://www.bt-chat.com/rss.php?group=3 eztv http://www.bt-chat.com/users.php?id=313 http://www.bt-chat.com/details.php%3Fid%3D203855 2015-01-26T03:59:49-05:00 1999-11-30T00:00:00.16-05:00
Help us by donating with Bitcoin: 1EZTVaGQ6UsjYJ9fwqGnd45oZ6HGT7WKZd #EZTV -> To avoid fakes, ALWAYS check that the torrent was added by eztv. https://eztv.ch/ Episode: Togetherness S01E03 HDTV x264-KILLERS Screenshots: https://ezimg.it/th/48958d72ce22cf4b08b8cffe25189f9a/045cba7127a0f14ddb5735b50231a6af174e7fdd.png
The.Other.Guys.2010.1080p.BluRay.x264-METiS.torrent Verified http://www.bt-chat.com/rss.php?group=230 Drarbg http://www.bt-chat.com/users.php?id=143535 http://www.bt-chat.com/details.php%3Fid%3D203854 2015-01-26T03:59:37-05:00 1999-11-30T00:00:00.17-05:00
The Other Guys (2010) http://www.imdb.com/title/tt1386588/ RATiNG .....: 6.8/10 (19,678 votes) ViDEO ......: 1920x800 @6568 kbps AUDiO ......: 1509 kbps DTS RUNTiME ....: 116 min Language ...: English Subtitle ...: English Screens: [url=http://imagecurl.com/viewer.php?file=80795013067827155705.png][img]http://imagecurl.com/images/80795013067827155705_thumb.png[/img][/url] [url=http://imagecurl.com/viewer.php?file=10981526309455805406.png][img]http://imagecurl.com/images/10981526309455805406_thumb.png[/img][/url] [url=http://imagecurl.com/viewer.php?file=00145791715447650208.png][img]http://imagecurl.com/images/00145791715447650208_thumb.png[/img][/url] [url=http://imagecurl.com/viewer.php?file=59665651742388783250.png][img]http://imagecurl.com/images/59665651742388783250_thumb.png[/img][/url] [url=http://imagecurl.com/viewer.php?file=80795013067827155705.png][img]http://imagecurl.com/images/80795013067827155705_thumb.png[/img][/url] [url=http://imagecurl.com/viewer.php?file=34848802157111253536.png][img]http://imagecurl.com/images/34848802157111253536_thumb.png[/img][/url] [mediainfo] Video ID : 1 Format : AVC Format/Info : Advanced Video Codec Format profile : High@L4.1 Format settings, CABAC : Yes Format settings, ReFrames : 5 frames Codec ID : V_MPEG4/ISO/AVC Bit rate : 9 049 Kbps Width : 1 920 pixels Height : 800 pixels Display aspect ratio : 2.40:1 Frame rate mode : Variable Original frame rate : 23.976 fps Color space : YUV Chroma subsampling : 4:2:0 Bit depth : 8 bits Scan type : Progressive Default : Yes Forced : No Audio ID : 2 Format : DTS Format/Info : Digital Theater Systems Mode : 16 Format settings, Endianness : Big Codec ID : A_DTS Duration : 1h 56mn Bit rate mode : Constant Bit rate : 1 509 Kbps Channel(s) : 6 channels Channel positions : Front: L C R, Side: L R, LFE Sampling rate : 48.0 KHz Bit depth : 16 bits Compression mode : Lossy Stream size : 1.23 GiB (14%) Language : English Default : Yes Forced : No Text ID : 3 Format : UTF-8 Codec ID : S_TEXT/UTF8 Codec ID/Info : UTF-8 Plain Text Language : English Default : Yes Forced : No [/mediainfo]
The.Long.Kiss.Goodnight.1996.1080p.BluRay.x264-HCA.torrent Verified http://www.bt-chat.com/rss.php?group=230 Drarbg http://www.bt-chat.com/users.php?id=143535 http://www.bt-chat.com/details.php%3Fid%3D203853 2015-01-26T03:57:58-05:00 1999-11-30T00:00:00.18-05:00
The.Long.Kiss.Goodnight.1996.1080p.BluRay.x264-HCA Video Bitrate : X264@ 8873K Audio Bitrate : DTS 1510K Resolution : 1920x800 Running Time :121Mins Language: English Substitle:N/A http://www.imdb.com/title/tt0116908/ Screens: [url=http://imagecurl.com/viewer.php?file=79856091211961422812.png][img]http://imagecurl.com/images/79856091211961422812_thumb.png[/img][/url] [url=http://imagecurl.com/viewer.php?file=19470406919029511074.png][img]http://imagecurl.com/images/19470406919029511074_thumb.png[/img][/url] [url=http://imagecurl.com/viewer.php?file=53818671825277797076.png][img]http://imagecurl.com/images/53818671825277797076_thumb.png[/img][/url] [url=http://imagecurl.com/viewer.php?file=66334810566687166866.png][img]http://imagecurl.com/images/66334810566687166866_thumb.png[/img][/url] [url=http://imagecurl.com/viewer.php?file=00778922055234018441.png][img]http://imagecurl.com/images/00778922055234018441_thumb.png[/img][/url] [url=http://imagecurl.com/viewer.php?file=93335828404838255336.png][img]http://imagecurl.com/images/93335828404838255336_thumb.png[/img][/url] [mediainfo] Video ID : 1 Format : AVC Format/Info : Advanced Video Codec Format profile : High@L4.1 Format settings, CABAC : Yes Format settings, ReFrames : 5 frames Codec ID : V_MPEG4/ISO/AVC Duration : 2h 0mn Bit rate : 8 873 Kbps Width : 1 920 pixels Height : 800 pixels Display aspect ratio : 2.40:1 Frame rate mode : Constant Frame rate : 23.976 fps Color space : YUV Chroma subsampling : 4:2:0 Bit depth : 8 bits Scan type : Progressive Bits/(Pixel*Frame) : 0.241 Stream size : 7.30 GiB (83%) Writing library : x264 core 112 r1867 22bfd31 Encoding settings : cabac=1 / ref=5 / deblock=1:-1:-1 / analyse=0x3:0x113 / me=umh / subme=7 / psy=1 / psy_rd=1.00:0.00 / mixed_ref=1 / me_range=16 / chroma_me=1 / trellis=1 / 8x8dct=1 / cqm=0 / deadzone=21,11 / fast_pskip=1 / chroma_qp_offset=-2 / threads=12 / sliced_threads=0 / nr=0 / decimate=1 / interlaced=0 / constrained_intra=0 / bframes=3 / b_pyramid=2 / b_adapt=2 / b_bias=0 / direct=3 / weightb=1 / open_gop=0 / weightp=2 / keyint=250 / keyint_min=23 / scenecut=40 / intra_refresh=0 / rc_lookahead=40 / rc=2pass / mbtree=1 / bitrate=8873 / ratetol=1.0 / qcomp=0.60 / qpmin=0 / qpmax=51 / qpstep=4 / cplxblur=20.0 / qblur=0.5 / vbv_maxrate=50000 / vbv_bufsize=50000 / nal_hrd=none / ip_ratio=1.40 / aq=1:1.00 Language : English Default : Yes Forced : Yes Audio ID : 2 Format : DTS Format/Info : Digital Theater Systems Mode : 16 Format settings, Endianness : Big Codec ID : A_DTS Duration : 2h 0mn Bit rate mode : Constant Bit rate : 1 509 Kbps Channel(s) : 6 channels Channel positions : Front: L C R, Side: L R, LFE Sampling rate : 48.0 KHz Bit depth : 24 bits Compression mode : Lossy Stream size : 1.27 GiB (15%) Language : English Default : Yes Forced : Yes [/mediainfo]
Bitter.Moon.1992.1080p.BluRay.FLAC.x264-EA.torrent Verified http://www.bt-chat.com/rss.php?group=230 Drarbg http://www.bt-chat.com/users.php?id=143535 http://www.bt-chat.com/details.php%3Fid%3D203852 2015-01-26T03:57:53-05:00 1999-11-30T00:00:00.19-05:00
Screens: [url=http://imagecurl.com/viewer.php?file=04556295195970175775.png][img]http://imagecurl.com/images/04556295195970175775_thumb.png[/img][/url] [url=http://imagecurl.com/viewer.php?file=37910422619587080979.png][img]http://imagecurl.com/images/37910422619587080979_thumb.png[/img][/url] [url=http://imagecurl.com/viewer.php?file=49298070007943600102.png][img]http://imagecurl.com/images/49298070007943600102_thumb.png[/img][/url] [url=http://imagecurl.com/viewer.php?file=44221406571199453515.png][img]http://imagecurl.com/images/44221406571199453515_thumb.png[/img][/url] [url=http://imagecurl.com/viewer.php?file=14941201851969267754.png][img]http://imagecurl.com/images/14941201851969267754_thumb.png[/img][/url] [url=http://imagecurl.com/viewer.php?file=32254929827607447576.png][img]http://imagecurl.com/images/32254929827607447576_thumb.png[/img][/url] [mediainfo] Video ID : 1 Format : AVC Format/Info : Advanced Video Codec Format profile : High@L4.1 Format settings, CABAC : Yes Format settings, ReFrames : 4 frames Codec ID : V_MPEG4/ISO/AVC Duration : 2h 19mn Width : 1 920 pixels Height : 1 016 pixels Display aspect ratio : 1.890 Frame rate mode : Constant Frame rate : 23.976 fps Color space : YUV Chroma subsampling : 4:2:0 Bit depth : 8 bits Scan type : Progressive Title : -EA Writing library : x264 core 144 r0+2574 9abcd72 t_mod_Custom [8-bit@all X86_64] Encoding settings : cabac=1 / ref=4 / deblock=1:-3:-3 / analyse=0x3:0x113 / me=umh / subme=10 / psy=1 / fade_compensate=0.00 / psy_rd=1.10:0.00 / mixed_ref=1 / me_range=32 / chroma_me=1 / trellis=2 / 8x8dct=1 / cqm=0 / deadzone=21,11 / fast_pskip=0 / chroma_qp_offset=-2 / threads=12 / lookahead_threads=3 / sliced_threads=0 / nr=0 / decimate=0 / interlaced=0 / bluray_compat=0 / constrained_intra=0 / fgo=0 / bframes=13 / b_pyramid=2 / b_adapt=2 / b_bias=0 / direct=3 / weightb=1 / open_gop=0 / weightp=2 / keyint=240 / keyint_min=23 / scenecut=40 / intra_refresh=0 / rc_lookahead=50 / rc=crf / mbtree=0 / crf=19.2000 / qcomp=0.75 / qpmin=0:0:0 / qpmax=69:69:69 / qpstep=4 / vbv_maxrate=62500 / vbv_bufsize=78125 / crf_max=0.0 / nal_hrd=none / filler=0 / ip_ratio=1.20 / pb_ratio=1.10 / aq=1:0.60 / aq-sensitivity=10.00 / aq-factor=1.00:1.00:1.00 / aq2=1:0.50 / aq2-sensitivity=15.00 / aq2-factor=1.00:1.00:1.00 / aq3=0 Language : English Default : Yes Forced : No DURATION : 02:19:40.956000000 NUMBER_OF_FRAMES : 200942 NUMBER_OF_BYTES : 21631029500 _STATISTICS_WRITING_APP : mkvmerge v7.5.0 (\Glass Culture\) 64bit built on Jan 4 2015 16:48:44 _STATISTICS_WRITING_DATE_UTC : 2015-01-24 05:55:40 _STATISTICS_TAGS : BPS DURATION NUMBER_OF_FRAMES NUMBER_OF_BYTES Audio ID : 2 Format : FLAC Format/Info : Free Lossless Audio Codec Codec ID : A_FLAC Duration : 2h 19mn Bit rate mode : Variable Channel(s) : 2 channels Sampling rate : 48.0 KHz Bit depth : 16 bits Writing library : libFLAC 1.2.1 (UTC 2007-09-17) Language : English Default : Yes Forced : No Text #1 ID : 3 Format : UTF-8 Codec ID : S_TEXT/UTF8 Codec ID/Info : UTF-8 Plain Text Title : srt Language : English Default : No Forced : No Text #2 ID : 4 Format : UTF-8 Codec ID : S_TEXT/UTF8 Codec ID/Info : UTF-8 Plain Text Title : srt Language : Turkish Default : No Forced : No Text #3 ID : 5 Format : UTF-8 Codec ID : S_TEXT/UTF8 Codec ID/Info : UTF-8 Plain Text Title : srt HoH Language : English Default : No Forced : No Text #4 ID : 6 Format : PGS Muxing mode : zlib Codec ID : S_HDMV/PGS Codec ID/Info : The same subtitle format used on BDs/HD-DVDs Title : sup Language : English Default : No Forced : No Text #5 ID : 7 Format : PGS Muxing mode : zlib Codec ID : S_HDMV/PGS Codec ID/Info : The same subtitle format used on BDs/HD-DVDs Title : sup HoH Language : English Default : No Forced : No Text #6 ID : 8 Format : PGS Muxing mode : zlib Codec ID : S_HDMV/PGS Codec ID/Info : The same subtitle format used on BDs/HD-DVDs Title : sup Language : Russian Default : No Forced : No Menu 00:00:00.000 : en:00:00:00.000 00:17:17.502 : en:00:17:17.502 00:30:09.507 : en:00:30:09.507 00:44:27.597 : en:00:44:27.597 00:56:50.405 : en:00:56:50.405 01:14:17.819 : en:01:14:17.819 01:29:39.407 : en:01:29:39.407 01:47:41.921 : en:01:47:41.921 02:00:57.015 : en:02:00:57.015 [/mediainfo][*]
Supremacy.2014.WEB-DL.x264-RARBG.torrent Verified http://www.bt-chat.com/rss.php?group=230 Drarbg http://www.bt-chat.com/users.php?id=143535 http://www.bt-chat.com/details.php%3Fid%3D203851 2015-01-26T02:44:02-05:00 1999-11-30T00:00:00.20-05:00
[b]Supremacy.2014.WEB-DL.x264-RARBG[/b] Screens: [url=http://imagecurl.com/viewer.php?file=92364967737632274713.png][img]http://imagecurl.com/images/92364967737632274713_thumb.png[/img][/url] [url=http://imagecurl.com/viewer.php?file=24841057198898406597.png][img]http://imagecurl.com/images/24841057198898406597_thumb.png[/img][/url] [url=http://imagecurl.com/viewer.php?file=37057898740394847112.png][img]http://imagecurl.com/images/37057898740394847112_thumb.png[/img][/url] [url=http://imagecurl.com/viewer.php?file=29212323998957426838.png][img]http://imagecurl.com/images/29212323998957426838_thumb.png[/img][/url] [url=http://imagecurl.com/viewer.php?file=31314513964866224821.png][img]http://imagecurl.com/images/31314513964866224821_thumb.png[/img][/url] [url=http://imagecurl.com/viewer.php?file=20846935415521676962.png][img]http://imagecurl.com/images/20846935415521676962_thumb.png[/img][/url] [b]Info:[/b] [mediainfo] ideo ID : 1 Format : AVC Format/Info : Advanced Video Codec Format profile : High@L3.1 Format settings, CABAC : Yes Format settings, ReFrames : 5 frames Codec ID : avc1 Codec ID/Info : Advanced Video Coding Duration : 1h 50mn Bit rate : 1 100 Kbps Width : 720 pixels Height : 304 pixels Display aspect ratio : 2.40:1 Original display aspect ratio : 2.40:1 Frame rate mode : Constant Frame rate : 23.976 fps Color space : YUV Chroma subsampling : 4:2:0 Bit depth : 8 bits Scan type : Progressive Bits/(Pixel*Frame) : 0.210 Stream size : 854 MiB (89%) Writing library : x264 core 142 r2495 6a301b6 Encoding settings : cabac=1 / ref=5 / deblock=1:-2:-2 / analyse=0x3:0x113 / me=umh / subme=8 / psy=1 / psy_rd=0.90:0.00 / mixed_ref=1 / me_range=16 / chroma_me=1 / trellis=1 / 8x8dct=1 / cqm=0 / deadzone=21,11 / fast_pskip=1 / chroma_qp_offset=-2 / threads=8 / lookahead_threads=2 / sliced_threads=0 / nr=0 / decimate=1 / interlaced=0 / bluray_compat=0 / constrained_intra=0 / bframes=3 / b_pyramid=2 / b_adapt=2 / b_bias=0 / direct=3 / weightb=1 / open_gop=0 / weightp=2 / keyint=250 / keyint_min=25 / scenecut=40 / intra_refresh=0 / rc_lookahead=50 / rc=abr / mbtree=1 / bitrate=1100 / ratetol=1.0 / qcomp=0.60 / qpmin=0 / qpmax=69 / qpstep=4 / vbv_maxrate=31250 / vbv_bufsize=31250 / nal_hrd=none / filler=0 / ip_ratio=1.40 / aq=1:1.00 Language : English Audio ID : 2 Format : AAC Format/Info : Advanced Audio Codec Format profile : LC Codec ID : 40 Duration : 1h 50mn Duration_LastFrame : 43ms Bit rate mode : Constant Bit rate : 128 Kbps Channel(s) : 6 channels Channel positions : Front: L C R, Side: L R, LFE Sampling rate : 48.0 KHz Compression mode : Lossy Stream size : 101 MiB (11%) Language : English [/mediainfo] [b]Notes: Greetz to all! :)[/b]
Supremacy.2014.WEB-DL.XviD.MP3-RARBG.torrent Verified http://www.bt-chat.com/rss.php?group=230 Drarbg http://www.bt-chat.com/users.php?id=143535 http://www.bt-chat.com/details.php%3Fid%3D203850 2015-01-26T02:15:12-05:00 1999-11-30T00:00:00.21-05:00
[b]Supremacy.2014.WEB-DL.XviD.MP3-RARBG[/b] Screens: [url=http://imagecurl.com/viewer.php?file=25492750184869341908.png][img]http://imagecurl.com/images/25492750184869341908_thumb.png[/img][/url] [url=http://imagecurl.com/viewer.php?file=37832031390827516598.png][img]http://imagecurl.com/images/37832031390827516598_thumb.png[/img][/url] [url=http://imagecurl.com/viewer.php?file=02025231817583022316.png][img]http://imagecurl.com/images/02025231817583022316_thumb.png[/img][/url] [url=http://imagecurl.com/viewer.php?file=97853447301263919933.png][img]http://imagecurl.com/images/97853447301263919933_thumb.png[/img][/url] [url=http://imagecurl.com/viewer.php?file=91105521612958562212.png][img]http://imagecurl.com/images/91105521612958562212_thumb.png[/img][/url] [url=http://imagecurl.com/viewer.php?file=65730308572465427667.png][img]http://imagecurl.com/images/65730308572465427667_thumb.png[/img][/url] [b]Info:[/b] [mediainfo] Format : AVI Format/Info : Audio Video Interleave File size : 1.24 GiB Duration : 1h 50mn Overall bit rate : 1 605 Kbps Movie name : RARBG.COM - Supremacy.2014.WEB-DL.XviD.MP3-RARBG Writing library : VirtualDub build 35491/release Comment : RARBG.COM - Supremacy.2014.WEB-DL.XviD.MP3-RARBG Video ID : 0 Format : MPEG-4 Visual Format profile : Simple@L5 Format settings, BVOP : No Format settings, QPel : No Format settings, GMC : No warppoints Format settings, Matrix : Default (H.263) Codec ID : XVID Codec ID/Hint : XviD Duration : 1h 50mn Bit rate : 1 400 Kbps Width : 720 pixels Height : 304 pixels Display aspect ratio : 2.40:1 Frame rate : 23.976 fps Color space : YUV Chroma subsampling : 4:2:0 Bit depth : 8 bits Scan type : Progressive Compression mode : Lossy Bits/(Pixel*Frame) : 0.267 Stream size : 1.08 GiB (87%) Writing library : Lavc56.20.100 Audio ID : 1 Format : MPEG Audio Format version : Version 1 Format profile : Layer 3 Mode : Joint stereo Mode extension : MS Stereo Codec ID : 55 Codec ID/Hint : MP3 Duration : 1h 50mn Bit rate mode : Constant Bit rate : 192 Kbps Channel(s) : 2 channels Sampling rate : 48.0 KHz Compression mode : Lossy Stream size : 151 MiB (12%) Alignment : Aligned on interleaves Interleave, duration : 24 ms (0.58 video frame) Interleave, preload duration : 504 ms Writing library : LAME3.99.5ªªªªªªªªªÿ [/mediainfo] [b]Notes: Greetz to all! :)[/b]
Supremacy.2014.WEB-DL.XviD.AC3-RARBG.torrent Verified http://www.bt-chat.com/rss.php?group=230 Drarbg http://www.bt-chat.com/users.php?id=143535 http://www.bt-chat.com/details.php%3Fid%3D203849 2015-01-26T02:14:30-05:00 1999-11-30T00:00:00.22-05:00
[b]Supremacy.2014.WEB-DL.XviD.AC3-RARBG[/b] Screens: [url=http://imagecurl.com/viewer.php?file=25492750184869341908.png][img]http://imagecurl.com/images/25492750184869341908_thumb.png[/img][/url] [url=http://imagecurl.com/viewer.php?file=37832031390827516598.png][img]http://imagecurl.com/images/37832031390827516598_thumb.png[/img][/url] [url=http://imagecurl.com/viewer.php?file=02025231817583022316.png][img]http://imagecurl.com/images/02025231817583022316_thumb.png[/img][/url] [url=http://imagecurl.com/viewer.php?file=97853447301263919933.png][img]http://imagecurl.com/images/97853447301263919933_thumb.png[/img][/url] [url=http://imagecurl.com/viewer.php?file=91105521612958562212.png][img]http://imagecurl.com/images/91105521612958562212_thumb.png[/img][/url] [url=http://imagecurl.com/viewer.php?file=65730308572465427667.png][img]http://imagecurl.com/images/65730308572465427667_thumb.png[/img][/url] [b]Info:[/b] [mediainfo] Format : AVI Format/Info : Audio Video Interleave File size : 1.38 GiB Duration : 1h 50mn Overall bit rate : 1 794 Kbps Movie name : RARBG.COM - Supremacy.2014.WEB-DL.XviD.AC3-RARBG Writing library : VirtualDub build 35491/release Comment : RARBG.COM - Supremacy.2014.WEB-DL.XviD.AC3-RARBG Video ID : 0 Format : MPEG-4 Visual Format profile : Simple@L5 Format settings, BVOP : No Format settings, QPel : No Format settings, GMC : No warppoints Format settings, Matrix : Default (H.263) Codec ID : XVID Codec ID/Hint : XviD Duration : 1h 50mn Bit rate : 1 400 Kbps Width : 720 pixels Height : 304 pixels Display aspect ratio : 2.40:1 Frame rate : 23.976 fps Color space : YUV Chroma subsampling : 4:2:0 Bit depth : 8 bits Scan type : Progressive Compression mode : Lossy Bits/(Pixel*Frame) : 0.267 Stream size : 1.08 GiB (78%) Writing library : Lavc56.20.100 Audio ID : 1 Format : AC-3 Format/Info : Audio Coding 3 Mode extension : CM (complete main) Format settings, Endianness : Big Codec ID : 2000 Duration : 1h 50mn Bit rate mode : Constant Bit rate : 384 Kbps Channel(s) : 6 channels Channel positions : Front: L C R, Side: L R, LFE Sampling rate : 48.0 KHz Bit depth : 16 bits Compression mode : Lossy Stream size : 303 MiB (21%) Alignment : Aligned on interleaves Interleave, duration : 42 ms (1.00 video frame) Interleave, preload duration : 512 ms [/mediainfo] [b]Notes: Greetz to all! :)[/b]
Supremacy.2014.720p.WEB-DL.XviD.AC3-RARBG.torrent Verified http://www.bt-chat.com/rss.php?group=230 Drarbg http://www.bt-chat.com/users.php?id=143535 http://www.bt-chat.com/details.php%3Fid%3D203848 2015-01-26T02:13:29-05:00 1999-11-30T00:00:00.23-05:00
[b]Supremacy.2014.720p.WEB-DL.XviD.AC3-RARBG[/b] Screens: [url=http://imagecurl.com/viewer.php?file=10931932234165221154.png][img]http://imagecurl.com/images/10931932234165221154_thumb.png[/img][/url] [url=http://imagecurl.com/viewer.php?file=77601822730209520653.png][img]http://imagecurl.com/images/77601822730209520653_thumb.png[/img][/url] [url=http://imagecurl.com/viewer.php?file=38092651357477274651.png][img]http://imagecurl.com/images/38092651357477274651_thumb.png[/img][/url] [url=http://imagecurl.com/viewer.php?file=51401798812256712020.png][img]http://imagecurl.com/images/51401798812256712020_thumb.png[/img][/url] [url=http://imagecurl.com/viewer.php?file=89614976737023439699.png][img]http://imagecurl.com/images/89614976737023439699_thumb.png[/img][/url] [url=http://imagecurl.com/viewer.php?file=13696140483607229623.png][img]http://imagecurl.com/images/13696140483607229623_thumb.png[/img][/url] [b]Info:[/b] [mediainfo] Format : AVI Format/Info : Audio Video Interleave Format profile : OpenDML File size : 3.22 GiB Duration : 1h 50mn Overall bit rate : 4 188 Kbps Movie name : RARBG.COM - Supremacy.2014.720p.WEB-DL.XviD.AC3-RARBG Writing library : VirtualDub build 35491/release Comment : RARBG.COM - Supremacy.2014.720p.WEB-DL.XviD.AC3-RARBG Video ID : 0 Format : MPEG-4 Visual Format profile : Simple@L5 Format settings, BVOP : No Format settings, QPel : No Format settings, GMC : No warppoints Format settings, Matrix : Default (H.263) Codec ID : XVID Codec ID/Hint : XviD Duration : 1h 50mn Bit rate : 3 794 Kbps Width : 1 280 pixels Height : 530 pixels Display aspect ratio : 2.40:1 Frame rate : 23.976 fps Color space : YUV Chroma subsampling : 4:2:0 Bit depth : 8 bits Scan type : Progressive Compression mode : Lossy Bits/(Pixel*Frame) : 0.233 Stream size : 2.92 GiB (91%) Writing library : Lavc56.20.100 Audio ID : 1 Format : AC-3 Format/Info : Audio Coding 3 Mode extension : CM (complete main) Format settings, Endianness : Big Codec ID : 2000 Duration : 1h 50mn Bit rate mode : Constant Bit rate : 384 Kbps Channel(s) : 6 channels Channel positions : Front: L C R, Side: L R, LFE Sampling rate : 48.0 KHz Bit depth : 16 bits Compression mode : Lossy Stream size : 303 MiB (9%) Alignment : Aligned on interleaves Interleave, duration : 42 ms (1.00 video frame) Interleave, preload duration : 512 ms [/mediainfo] [b]Notes: Greetz to all! :)[/b]
Kill.the.Messenger.2014.1080p.BluRay.H264.AAC-RARBG.torrent Verified http://www.bt-chat.com/rss.php?group=230 Drarbg http://www.bt-chat.com/users.php?id=143535 http://www.bt-chat.com/details.php%3Fid%3D203847 2015-01-26T02:10:25-05:00 1999-11-30T00:00:00.24-05:00
[URL]http://www.imdb.com/title/tt1216491/[/URL] [URL=http://imagecurl.com/viewer.php?file=37347898535280588885.png][IMG]http://imagecurl.com/images/37347898535280588885_thumb.png[/IMG][/URL] [URL=http://imagecurl.com/viewer.php?file=26508927448650200536.png][IMG]http://imagecurl.com/images/26508927448650200536_thumb.png[/IMG][/URL] [URL=http://imagecurl.com/viewer.php?file=01612711713587748333.png][IMG]http://imagecurl.com/images/01612711713587748333_thumb.png[/IMG][/URL] [URL=http://imagecurl.com/viewer.php?file=61780262861382115997.png][IMG]http://imagecurl.com/images/61780262861382115997_thumb.png[/IMG][/URL] [URL=http://imagecurl.com/viewer.php?file=40180736175810329960.png][IMG]http://imagecurl.com/images/40180736175810329960_thumb.png[/IMG][/URL] [mediainfo] Video ID : 1 Format : AVC Format/Info : Advanced Video Codec Format profile : High@L4.1 Format settings, CABAC : Yes Format settings, ReFrames : 4 frames Codec ID : avc1 Codec ID/Info : Advanced Video Coding Duration : 1h 51mn Bit rate : 2 500 Kbps Width : 1 920 pixels Height : 800 pixels Display aspect ratio : 2.40:1 Frame rate mode : Constant Frame rate : 24.000 fps Color space : YUV Chroma subsampling : 4:2:0 Bit depth : 8 bits Scan type : Progressive Bits/(Pixel*Frame) : 0.068 Stream size : 1.95 GiB (92%) Writing library : x264 core 144 r2525M 40bb568 Encoding settings : cabac=1 / ref=4 / deblock=1:-1:-1 / analyse=0x3:0x113 / me=umh / subme=9 / psy=1 / psy_rd=1.00:0.15 / mixed_ref=1 / me_range=24 / chroma_me=1 / trellis=2 / 8x8dct=1 / cqm=0 / deadzone=21,11 / fast_pskip=1 / chroma_qp_offset=-3 / threads=32 / lookahead_threads=4 / sliced_threads=0 / nr=0 / decimate=1 / interlaced=0 / bluray_compat=0 / constrained_intra=0 / bframes=3 / b_pyramid=2 / b_adapt=1 / b_bias=0 / direct=1 / weightb=1 / open_gop=0 / weightp=2 / keyint=250 / keyint_min=25 / scenecut=40 / intra_refresh=0 / rc_lookahead=50 / rc=2pass / mbtree=1 / bitrate=2500 / ratetol=1.0 / qcomp=0.60 / qpmin=0 / qpmax=69 / qpstep=4 / cplxblur=20.0 / qblur=0.5 / vbv_maxrate=31250 / vbv_bufsize=31250 / nal_hrd=none / filler=0 / ip_ratio=1.40 / aq=3:1.00 Encoded date : UTC 1904-01-01 00:00:00 Tagged date : UTC 1904-01-01 00:00:00 Audio ID : 2 Format : AAC Format/Info : Advanced Audio Codec Format profile : LC Codec ID : 40 Duration : 1h 51mn Bit rate mode : Constant Bit rate : 224 Kbps Channel(s) : 2 channels Channel(s)_Original : 6 channels Channel positions : Front: L C R, Side: L R, LFE Sampling rate : 48.0 KHz Compression mode : Lossy Stream size : 179 MiB (8%) Language : English Encoded date : UTC 1904-01-01 00:00:00 Tagged date : UTC 1904-01-01 00:00:00 [/mediainfo]